Cyborg (1989) 720p BDRip Dual Latino-Inglés [Subt. Esp] (Ciencia ficción. Acción)

Maestro Revolver

Well-known member
Miembro del Staff
Administrador
Registro
9 Ago 2012
Mensajes
3.567








TÍTULO ORIGINAL: Cyborg
AÑO: 1989
DURACIÓN: 86 min.
PAÍS: USA
DIRECTOR: Albert Pyun
GUIÓN: Kitty Chalmers
REPARTO: Jean-Claude Van Damme, Deborah Richter, Vincent Klyn, Alex Daniels, Dayle Haddon, Blaise Loong, Ralf Moeller, Haley Peterson
PRODUCTORA: Cannon Enteretainment / Golan-Globus
GÉNERO: Ciencia ficción. Acción | Futuro postapocalíptico. Robots. Cyberpunk
: http://www.imdb.com/title/tt0097138/






Siglo XXI, en un futuro apocalíptico... América está sometida a una anarquía social donde el caos reina a sus anchas, y sobre la que se cierne el peligro de una devastadora plaga que puede acabar con la raza humana. Únicamente, la hermosa Pearl (Dayle Haddon), mitad humana mitad robot, posee el conocimiento necesario para desarrollar una vacuna que pueda salvar el mundo. Pero Pearl es capturada por un grupo de piratas del futuro que pretenden apoderarse del antídoto y así dominar el mundo. Ahora, sólo el héroe Gibson Rtickenbarker (Jean-Claude Van Damme) con su increíble habilidad para la lucha y su auténtico dominio del sable, podrá rescatarla y salvar lo que queda de civilización..
























La pelicula NO tiene ninguna marca... solo colocamos el nombre de esta web en las capturas






Código:
General
Format                                   : Matroska
Format version                           : Version 2
File size                                : 3.48 GiB
Duration                                 : 1h 26mn
Overall bit rate                         : 5 761 Kbps
Movie name                               : www.club-hd.com
Encoded date                             : UTC 2013-09-19 15:25:37
Writing application                      : mkvmerge v5.7.0 ('The Whirlwind') built on Jul  8 2012 20:08:51
Writing library                          : libebml v1.2.3 + libmatroska v1.3.0

Video
ID                                       : 1
Format                                   : AVC
Format/Info                              : Advanced Video Codec
Format profile                           : High@L4.1
Format settings, CABAC                   : Yes
Format settings, ReFrames                : 8 frames
Codec ID                                 : V_MPEG4/ISO/AVC
Duration                                 : 1h 26mn
Bit rate                                 : 5 198 Kbps
Nominal bit rate                         : 5 500 Kbps
Width                                    : 1 280 pixels
Height                                   : 688 pixels
Display aspect ratio                     : 1.85:1
Original display aspect ratio            : 1.85:1
Frame rate mode                          : Constant
Frame rate                               : 23.976 fps
Color space                              : YUV
Chroma subsampling                       : 4:2:0
Bit depth                                : 8 bits
Scan type                                : Progressive
Bits/(Pixel*Frame)                       : 0.246
Stream size                              : 3.14 GiB (90%)
Title                                    : www.club-hd.com
Writing library                          : x264 core 120
Language                                 : English
Default                                  : Yes
Forced                                   : No
Color primaries                          : BT.709
Transfer characteristics                 : BT.709
Matrix coefficients                      : BT.709

Audio #1
ID                                       : 2
Format                                   : AC-3
Format/Info                              : Audio Coding 3
Mode extension                           : CM (complete main)
Format settings, Endianness              : Big
Codec ID                                 : A_AC3
Duration                                 : 1h 26mn
Bit rate mode                            : Constant
Bit rate                                 : 256 Kbps
Channel(s)                               : 2 channels
Channel positions                        : Front: L R
Sampling rate                            : 48.0 KHz
Bit depth                                : 16 bits
Compression mode                         : Lossy
Stream size                              : 158 MiB (4%)
Title                                    : www.club-hd.com  >>  Latino
Language                                 : Spanish
Default                                  : Yes
Forced                                   : No

Audio #2
ID                                       : 3
Format                                   : AC-3
Format/Info                              : Audio Coding 3
Mode extension                           : CM (complete main)
Format settings, Endianness              : Big
Codec ID                                 : A_AC3
Duration                                 : 1h 26mn
Bit rate mode                            : Constant
Bit rate                                 : 192 Kbps
Channel(s)                               : 2 channels
Channel positions                        : Front: L R
Sampling rate                            : 48.0 KHz
Bit depth                                : 16 bits
Compression mode                         : Lossy
Stream size                              : 119 MiB (3%)
Title                                    : www.club-hd.com  >>  Inglés
Language                                 : English
Default                                  : No
Forced                                   : No

Text
ID                                       : 4
Format                                   : UTF-8
Codec ID                                 : S_TEXT/UTF8
Codec ID/Info                            : UTF-8 Plain Text
Language                                 : Spanish
Default                                  : No
Forced                                   : No

Menu
00:00:00.000                             : en:Chapter 1
00:00:25.191                             : en:Chapter 2
00:04:14.254                             : en:Chapter 3
00:05:24.824                             : en:Chapter 4
00:10:31.964                             : en:Chapter 5
00:16:20.521                             : en:Chapter 6
00:23:38.250                             : en:Chapter 7
00:28:52.856                             : en:Chapter 8
00:32:34.077                             : en:Chapter 9
00:36:01.117                             : en:Chapter 10
00:40:01.482                             : en:Chapter 11
00:46:34.917                             : en:Chapter 12
00:49:52.364                             : en:Chapter 13
00:55:11.725                             : en:Chapter 14
00:56:38.103                             : en:Chapter 15
00:59:36.614                             : en:Chapter 16
01:05:58.037                             : en:Chapter 17
01:09:25.202                             : en:Chapter 18
01:12:41.565                             : en:Chapter 19
01:19:29.890                             : en:Chapter 20
01:22:11.843                             : en:Chapter 21








Enlaces de Mega y Google Drive solo disponibles para Miembros VIP

Compra tu Membresía VIP y apoya a Club-HD!

ATENCIÓN! Tenemos TODO el material de Club-HD disponible por Mega y Google Drive, enlaces 100% activos y online hasta la fecha

Llévate tus cuentas Mega PRO III gratis con tu membresía VIP!
Todos los posts vivos con links de Mega y Google Drive.
Todo el material de Club-HD desbloqueado y sin publicidad.

Click Aquí para más información.




Enlaces de Mega y Google Drive solo disponibles para Miembros VIP

Compra tu Membresía VIP y apoya a Club-HD!

ATENCIÓN! Tenemos TODO el material de Club-HD disponible por Mega y Google Drive, enlaces 100% activos y online hasta la fecha

Llévate tus cuentas Mega PRO III gratis con tu membresía VIP!
Todos los posts vivos con links de Mega y Google Drive.
Todo el material de Club-HD desbloqueado y sin publicidad.

Click Aquí para más información.



Para ver este contenido oculto, debes dar click en una de las siguientes reacciones : Like Like, Love Love, Haha Haha, Wow Wow, Sad Sad, Angry Angry



Para ver este contenido oculto, debes dar click en una de las siguientes reacciones : Like Like, Love Love, Haha Haha, Wow Wow, Sad Sad, Angry Angry

 
Última edición por un moderador:

Usuarios Que Están Viendo Este Tema (Total: 1, Miembros: 0, Invitados: 1)

Quién Leyó Este Tema (Total Miembros: 1)

Arriba