Dances with Wolves (1990) Director's Cut m-720p Audio Inglés [Subt. Esp] (Western. Aventuras. Romance)

Maestro Revolver

Well-known member
Miembro del Staff
Administrador
Registro
9 Ago 2012
Mensajes
3.567








TÍTULO ORIGINAL: Dances with Wolves
AÑO: 1990
PAÍS: USA
DIRECTOR: Kevin Costner
GUIÓN: Michael Blake (Novela: Michael Blake)
MÚSICA: John Barry
FOTOGRAFÍA: Dean Semler
REPARTO: Kevin Costner, Mary McDonnell, Graham Greene, Rodney A. Grant, Tantoo Cardinal, Robert Pastorelli, Maury Chaykin, Wes Studi, Floyd 'Red Crow' Westerman, Charles Rocket, Steve Reevis
PRODUCTORA: Orion Pictures / Tig Productions
GÉNERO: Western. Aventuras. Romance | Cine épico. Remake
: http://www.imdb.com/title/tt0099348/

PREMIOS: 1991: Festival de Berlín: Oso de Plata - Logro individual sobresaliente (Kevin Costner)
1991: 9 Nominaciones BAFTA, incluyendo mejor película, director y actor (Costner)
1991: Nominada al Cesar: Mejor película extranjera
1990: 7 Oscars: Mejor película, director, guión, fotografía, sonido, bso y montaje
1990: Globos de Oro: Mejor película Drama, director y guión. 6 nominaciones
1990: National Board of Review: Mejor película






En torno a 1860, en vísperas de la Guerra de Secesión y a punto de terminar el periodo de colonización del Oeste (1785-1890), el teniente John J. Dunbar se dirige a un lejano puesto fronterizo que ha sido abandonado por los soldados. Su soledad lo impulsa a entrar en contacto con los indios sioux y, gracias a ello, conoce a "En pie con el puño en alto", una mujer blanca que fue adoptada por la tribu cuando era niña. Poco a poco, entre Dunbar y los sioux se establece una relación de respeto y admiración mutuos.
























La pelicula NO tiene ninguna marca... solo colocamos el nombre de esta web en las capturas






Código:
General
Format                                   : Matroska
Format version                           : Version 2
File size                                : 5.74 GiB
Duration                                 : 3h 53mn
Overall bit rate                         : 3 513 Kbps
Movie name                               : www.club-hd.com
Encoded date                             : UTC 2013-03-12 03:35:51
Writing application                      : mkvmerge v5.7.0 ('The Whirlwind') built on Jul  8 2012 20:08:51
Writing library                          : libebml v1.2.3 + libmatroska v1.3.0

Video
ID                                       : 1
Format                                   : AVC
Format/Info                              : Advanced Video Codec
Format profile                           : High@L4.1
Format settings, CABAC                   : Yes
Format settings, ReFrames                : 5 frames
Codec ID                                 : V_MPEG4/ISO/AVC
Duration                                 : 3h 53mn
Bit rate                                 : 3 000 Kbps
Width                                    : 1 280 pixels
Height                                   : 544 pixels
Display aspect ratio                     : 2.35:1
Frame rate mode                          : Constant
Frame rate                               : 23.976 fps
Color space                              : YUV
Chroma subsampling                       : 4:2:0
Bit depth                                : 8 bits
Scan type                                : Progressive
Bits/(Pixel*Frame)                       : 0.180
Stream size                              : 4.79 GiB (83%)
Title                                    : www.club-hd.com
Writing library                          : x264 core 120 r2164 da19765
Language                                 : English
Default                                  : Yes
Forced                                   : No

Audio
ID                                       : 2
Format                                   : AC-3
Format/Info                              : Audio Coding 3
Mode extension                           : CM (complete main)
Format settings, Endianness              : Big
Codec ID                                 : A_AC3
Duration                                 : 3h 53mn
Bit rate mode                            : Constant
Bit rate                                 : 512 Kbps
Channel(s)                               : 6 channels
Channel positions                        : Front: L C R, Side: L R, LFE
Sampling rate                            : 48.0 KHz
Bit depth                                : 16 bits
Compression mode                         : Lossy
Stream size                              : 856 MiB (15%)
Title                                    : www.club-hd.com
Language                                 : English
Default                                  : Yes
Forced                                   : No

Text
ID                                       : 3
Format                                   : UTF-8
Codec ID                                 : S_TEXT/UTF8
Codec ID/Info                            : UTF-8 Plain Text
Language                                 : Spanish
Default                                  : Yes
Forced                                   : No










Enlaces de Mega y Google Drive solo disponibles para Miembros VIP

Compra tu Membresía VIP y apoya a Club-HD!

ATENCIÓN! Tenemos TODO el material de Club-HD disponible por Mega y Google Drive, enlaces 100% activos y online hasta la fecha

Llévate tus cuentas Mega PRO III gratis con tu membresía VIP!
Todos los posts vivos con links de Mega y Google Drive.
Todo el material de Club-HD desbloqueado y sin publicidad.

Click Aquí para más información.




Enlaces de Mega y Google Drive solo disponibles para Miembros VIP

Compra tu Membresía VIP y apoya a Club-HD!

ATENCIÓN! Tenemos TODO el material de Club-HD disponible por Mega y Google Drive, enlaces 100% activos y online hasta la fecha

Llévate tus cuentas Mega PRO III gratis con tu membresía VIP!
Todos los posts vivos con links de Mega y Google Drive.
Todo el material de Club-HD desbloqueado y sin publicidad.

Click Aquí para más información.


Enlaces de Mega y Google Drive solo disponibles para Miembros VIP

Compra tu Membresía VIP y apoya a Club-HD!

ATENCIÓN! Tenemos TODO el material de Club-HD disponible por Mega y Google Drive, enlaces 100% activos y online hasta la fecha

Llévate tus cuentas Mega PRO III gratis con tu membresía VIP!
Todos los posts vivos con links de Mega y Google Drive.
Todo el material de Club-HD desbloqueado y sin publicidad.

Click Aquí para más información.


Para ver este contenido oculto, debes dar click en una de las siguientes reacciones : Like Like, Love Love, Haha Haha, Wow Wow, Sad Sad, Angry Angry


Para ver este contenido oculto, debes dar click en una de las siguientes reacciones : Like Like, Love Love, Haha Haha, Wow Wow, Sad Sad, Angry Angry
 
Última edición:

Leo-Peru

Well-known member
Registro
27 Ago 2012
Mensajes
1.487
Ubicación
Lima
y gracias por el trabajo que te tomas en compartir estos aportes incluso a estas horas de la noche 4stuto
 

Ramirez2064

Active member
Registro
29 Ago 2012
Mensajes
463
Edad
34
aah que buena pelicula! gracias R21 tantos años siguiendo tus aportes y sigues igual de sorprendente con estrenos, clasicos y de todo siempre con esa excelente calidad, en verdad GRACIAS!
 

Claudia

New member
Súper Moderador
Registro
28 Ago 2012
Mensajes
2.282
Edad
48
Ubicación
EN MI MUNDO REAL...
aah que buena pelicula! gracias R21 tantos años siguiendo tus aportes y sigues igual de sorprendente con estrenos, clasicos y de todo siempre con esa excelente calidad, en verdad GRACIAS!
MUY LINDO COMENTARIO AMIGO!!!!!Pl4yb0yangrandece el esfuerzo de los Administradores, je de Revo en especial4stuto
 

Usuarios Que Están Viendo Este Tema (Total: 1, Miembros: 0, Invitados: 1)

Quién Leyó Este Tema (Total Miembros: 2)

Arriba