Dark Skies (2013) 720p BDRip Dual Latino-Inglés [Subt. Esp] (Ciencia ficción. Intriga)

Maestro Revolver

Well-known member
Miembro del Staff
Administrador
Registro
9 Ago 2012
Mensajes
3.567








TÍTULO ORIGINAL: Dark Skies
AÑO: 2013
DURACIÓN: 95 min.
PAÍS: USA
DIRECTOR: Scott Stewart
GUIÓN: Scott Stewart
REPARTO: Keri Russell, Josh Hamilton, Dakota Goyo, J.K. Simmons
PRODUCTORA: Dimension Films / Alliance Films / Blumhouse Films
GÉNERO: Ciencia ficción. Intriga | Sobrenatural. Extraterrestres
: http://www.imdb.com/title/tt2387433/






Los Barret son una familia que vive en los suburbios. Lacey y Daniel (Keri Russell & Josh Hamilton) presencian una serie de extraños acontecimientos perturbadores que afectan a su familia, a su seguridad y a su tranquilidad. Cuando descubren que su familia es el objetivo de una inimaginable y terrorífica fuerza mortal, ambos tendrán que hacer todo lo que esté en sus manos para resolver este oscuro misterio.
























La pelicula NO tiene ninguna marca... solo colocamos el nombre de esta web en las capturas






Código:
General
Format                                   : Matroska
Format version                           : Version 2
File size                                : 3.91 GiB
Duration                                 : 1h 37mn
Overall bit rate                         : 5 766 Kbps
Movie name                               : www.club-hd.com
Encoded date                             : UTC 2013-09-12 01:25:23
Writing application                      : mkvmerge v5.7.0 ('The Whirlwind') built on Jul  8 2012 20:08:51
Writing library                          : libebml v1.2.3 + libmatroska v1.3.0

Video
ID                                       : 1
Format                                   : AVC
Format/Info                              : Advanced Video Codec
Format profile                           : High@L4.1
Format settings, CABAC                   : Yes
Format settings, ReFrames                : 5 frames
Codec ID                                 : V_MPEG4/ISO/AVC
Duration                                 : 1h 37mn
Bit rate                                 : 4 933 Kbps
Width                                    : 1 280 pixels
Height                                   : 536 pixels
Display aspect ratio                     : 2.40:1
Frame rate mode                          : Constant
Frame rate                               : 23.976 fps
Color space                              : YUV
Chroma subsampling                       : 4:2:0
Bit depth                                : 8 bits
Scan type                                : Progressive
Bits/(Pixel*Frame)                       : 0.300
Stream size                              : 3.27 GiB (84%)
Title                                    : www.club-hd.com
Writing library                          : x264 core 132 r2310 76a5c3a
Language                                 : English
Default                                  : Yes
Forced                                   : No

Audio #1
ID                                       : 2
Format                                   : AC-3
Format/Info                              : Audio Coding 3
Mode extension                           : CM (complete main)
Format settings, Endianness              : Big
Codec ID                                 : A_AC3
Duration                                 : 1h 37mn
Bit rate mode                            : Constant
Bit rate                                 : 192 Kbps
Channel(s)                               : 2 channels
Channel positions                        : Front: L R
Sampling rate                            : 48.0 KHz
Bit depth                                : 16 bits
Compression mode                         : Lossy
Stream size                              : 133 MiB (3%)
Title                                    : www.club-hd.com > Latino
Language                                 : Spanish
Default                                  : Yes
Forced                                   : No

Audio #2
ID                                       : 3
Format                                   : AC-3
Format/Info                              : Audio Coding 3
Mode extension                           : CM (complete main)
Format settings, Endianness              : Big
Codec ID                                 : A_AC3
Duration                                 : 1h 37mn
Bit rate mode                            : Constant
Bit rate                                 : 640 Kbps
Channel(s)                               : 6 channels
Channel positions                        : Front: L C R, Side: L R, LFE
Sampling rate                            : 48.0 KHz
Bit depth                                : 16 bits
Compression mode                         : Lossy
Stream size                              : 445 MiB (11%)
Title                                    : www.club-hd.com > Inglés
Language                                 : English
Default                                  : No
Forced                                   : No

Text
ID                                       : 4
Format                                   : UTF-8
Codec ID                                 : S_TEXT/UTF8
Codec ID/Info                            : UTF-8 Plain Text
Language                                 : Spanish
Default                                  : No
Forced                                   : No

Menu
00:00:00.000                             : en:00:00:00.000
00:04:21.470                             : en:00:04:21.470
00:08:22.210                             : en:00:08:22.210
00:14:43.716                             : en:00:14:43.716
00:18:52.131                             : en:00:18:52.131
00:24:34.014                             : en:00:24:34.014
00:29:52.916                             : en:00:29:52.916
00:36:28.144                             : en:00:36:28.144
00:40:32.430                             : en:00:40:32.430
00:45:40.404                             : en:00:45:40.404
00:52:14.548                             : en:00:52:14.548
00:59:41.244                             : en:00:59:41.244
01:05:08.196                             : en:01:05:08.196
01:11:59.482                             : en:01:11:59.482
01:17:07.248                             : en:01:17:07.248
01:22:48.172                             : en:01:22:48.172
01:29:07.050                             : en:01:29:07.050
01:33:03.244                             : en:01:33:03.244








Enlaces de Mega y Google Drive solo disponibles para Miembros VIP

Compra tu Membresía VIP y apoya a Club-HD!

ATENCIÓN! Tenemos TODO el material de Club-HD disponible por Mega y Google Drive, enlaces 100% activos y online hasta la fecha

Llévate tus cuentas Mega PRO III gratis con tu membresía VIP!
Todos los posts vivos con links de Mega y Google Drive.
Todo el material de Club-HD desbloqueado y sin publicidad.

Click Aquí para más información.


Para ver este contenido oculto, debes dar click en una de las siguientes reacciones : Like Like, Love Love, Haha Haha, Wow Wow, Sad Sad, Angry Angry



 
Última edición por un moderador:

Doctor Jason

New member
Súper Moderador
Registro
1 Sep 2012
Mensajes
2.398
Ubicación
Buenos Aires
Muchisimas Gracias Revolver!!!

De los productores de "Insidious y Sinister" y no nombran que es el director de "Legion" (2010) y "Priest" (2011), taaaan malas no fueron para no decirlo, no?....o sí?Pnsand0

Heyyyyy locos!!!! No se asusten que solo vengo a invitarlos a un baile intergaláctico!!!

 

Usuarios Que Están Viendo Este Tema (Total: 1, Miembros: 0, Invitados: 1)

Quién Leyó Este Tema (Total Miembros: 3)

Arriba