Death Race 2 (2010) UNRATED m-720p Dual Latino-Inglés [Subt. Esp-Ing] (Ciencia ficción. Acción)

Maestro Revolver

Well-known member
Miembro del Staff
Administrador
Registro
9 Ago 2012
Mensajes
3.567

Rep:









TÍTULO ORIGINAL: Death Race 2
AÑO: 2010
DURACIÓN: 92 min.
PAÍS: Suráfrica
DIRECTOR: Roel Reiné
GUIÓN: Tony Giglio (Personajes e historia: Paul W.S. Anderson)
REPARTO: Luke Goss, Ving Rhames, Danny Trejo, Sean Bean, Lauren Cohan, Tanit Phoenix, Robin Shou, Frederick Koehler, Bjorn Steinbach, Joe Vaz, Warrick Grier, Sean Higgs
PRODUCTORA: Moonlighting Films
GÉNERO: Ciencia ficción. Acción. Thriller | Automovilismo. Precuela. Drama carcelario
: http://www.imdb.es/title/tt1500491/






Death Race 2 tiene lugar en un futuro muy próximo, cuando la economía de Estados Unidos comienza a declinar y la delincuencia violenta inicia una espiral fuera de control. Para contener a la población penal, se crea una serie de cárceles privadas, gobernadas por bandas, asesinos a sangre fría y sociópatas. La peor de estas cárceles es Terminal Island, donde condenado por el asesinato de unos policías llega Carl Lucas, el que será el auténtico protagonista del último reality show de la Carrera de la Muerte. El ganador, si es que alguien logra sobrevivir, tiene como premio la libertad.
























La pelicula NO tiene ninguna marca... solo colocamos el nombre de esta web en las capturas






Código:
General
Format                                   : Matroska
Format version                           : Version 2
File size                                : 2.67 GiB
Duration                                 : 1h 40mn
Overall bit rate                         : 3 811 Kbps
Movie name                               : www.club-hd.com
Encoded date                             : UTC 2013-02-05 04:20:39
Writing application                      : mkvmerge v5.7.0 ('The Whirlwind') built on Jul  8 2012 20:08:51
Writing library                          : libebml v1.2.3 + libmatroska v1.3.0

Video
ID                                       : 1
Format                                   : AVC
Format/Info                              : Advanced Video Codec
Format profile                           : High@L4.1
Format settings, CABAC                   : Yes
Format settings, ReFrames                : 9 frames
Codec ID                                 : V_MPEG4/ISO/AVC
Duration                                 : 1h 40mn
Bit rate                                 : 2 789 Kbps
Width                                    : 1 280 pixels
Height                                   : 720 pixels
Display aspect ratio                     : 16:9
Frame rate mode                          : Constant
Frame rate                               : 23.976 fps
Color space                              : YUV
Chroma subsampling                       : 4:2:0
Bit depth                                : 8 bits
Scan type                                : Progressive
Bits/(Pixel*Frame)                       : 0.126
Stream size                              : 1.90 GiB (71%)
Title                                    : www.club-hd.com
Writing library                          : x264 core 129 r2245 bc13772
Language                                 : English
Default                                  : Yes
Forced                                   : No

Audio #1
ID                                       : 2
Format                                   : AC-3
Format/Info                              : Audio Coding 3
Mode extension                           : CM (complete main)
Format settings, Endianness              : Big
Codec ID                                 : A_AC3
Duration                                 : 1h 40mn
Bit rate mode                            : Constant
Bit rate                                 : 384 Kbps
Channel(s)                               : 6 channels
Channel positions                        : Front: L C R, Side: L R, LFE
Sampling rate                            : 48.0 KHz
Bit depth                                : 16 bits
Compression mode                         : Lossy
Stream size                              : 276 MiB (10%)
Title                                    : www.club-hd.com  >>  Latino
Language                                 : Spanish
Default                                  : Yes
Forced                                   : No

Audio #2
ID                                       : 3
Format                                   : AC-3
Format/Info                              : Audio Coding 3
Mode extension                           : CM (complete main)
Format settings, Endianness              : Big
Codec ID                                 : A_AC3
Duration                                 : 1h 40mn
Bit rate mode                            : Constant
Bit rate                                 : 640 Kbps
Channel(s)                               : 6 channels
Channel positions                        : Front: L C R, Side: L R, LFE
Sampling rate                            : 48.0 KHz
Bit depth                                : 16 bits
Compression mode                         : Lossy
Stream size                              : 459 MiB (17%)
Title                                    : www.club-hd.com  >>  Inglés
Language                                 : English
Default                                  : No
Forced                                   : No

Text #1
ID                                       : 4
Format                                   : UTF-8
Codec ID                                 : S_TEXT/UTF8
Codec ID/Info                            : UTF-8 Plain Text
Language                                 : Spanish
Default                                  : No
Forced                                   : No

Text #2
ID                                       : 5
Format                                   : UTF-8
Codec ID                                 : S_TEXT/UTF8
Codec ID/Info                            : UTF-8 Plain Text
Language                                 : English
Default                                  : No
Forced                                   : No

Menu
00:00:00.000                             : en:Chapter 1
00:03:45.058                             : en:Chapter 2
00:08:21.167                             : en:Chapter 3
00:15:46.320                             : en:Chapter 4
00:19:26.832                             : en:Chapter 5
00:25:23.313                             : en:Chapter 6
00:29:30.435                             : en:Chapter 7
00:34:44.666                             : en:Chapter 8
00:37:43.761                             : en:Chapter 9
00:45:32.772                             : en:Chapter 10
00:49:31.552                             : en:Chapter 11
00:52:47.206                             : en:Chapter 12
00:58:48.108                             : en:Chapter 13
01:05:20.208                             : en:Chapter 14
01:12:09.492                             : en:Chapter 15
01:17:39.697                             : en:Chapter 16
01:24:38.282                             : en:Chapter 17
01:26:56.795                             : en:Chapter 18
01:30:23.293                             : en:Chapter 19
01:36:42.046                             : en:Chapter 20










Enlaces de Mega y Google Drive solo disponibles para Miembros VIP

Compra tu Membresía VIP y apoya a Club-HD!

ATENCIÓN! Tenemos TODO el material de Club-HD disponible por Mega y Google Drive, enlaces 100% activos y online hasta la fecha

Llévate tus cuentas Mega PRO III gratis con tu membresía VIP!
Todos los posts vivos con links de Mega y Google Drive.
Todo el material de Club-HD desbloqueado y sin publicidad.

Click Aquí para más información.




Enlaces de Mega y Google Drive solo disponibles para Miembros VIP

Compra tu Membresía VIP y apoya a Club-HD!

ATENCIÓN! Tenemos TODO el material de Club-HD disponible por Mega y Google Drive, enlaces 100% activos y online hasta la fecha

Llévate tus cuentas Mega PRO III gratis con tu membresía VIP!
Todos los posts vivos con links de Mega y Google Drive.
Todo el material de Club-HD desbloqueado y sin publicidad.

Click Aquí para más información.



Para ver este contenido oculto, debes dar click en una de las siguientes reacciones : Like Like, Love Love, Haha Haha, Wow Wow, Sad Sad, Angry Angry

 
Última edición por un moderador:

Usuarios Que Están Viendo Este Tema (Total: 1, Miembros: 0, Invitados: 1)

Quién Leyó Este Tema (Total Miembros: 1)

Arriba