• Este aviso va dirigido a todos los nuevos miembros recien llegados a Club-HD. Les recordamos que la direccion URL de este sitio web es , asi que deben acceder únicamente por esta URL. Sean todos bienvenidos al Club!

Deep Blue Sea 3 (2020) 1080p AMZN WEB-DL Dual Latino-Inglés [Sub-Lat-Ing] (Acción,Tiburones. Secuela)

Tk

K.D.S 😳
Diseñador
Uploader
Miembro VIP
Registrado
1 May 2017
Mensajes
386
Puntos de reacción
4,946
Puntos
93
Sitio web
www.flickr.com






La doctora Emma Collins y su equipo están pasando su tercer verano en la isla Little Happy estudiando el efecto del cambio climático en el gran tiburón blanco. Junto a los dos últimos habitantes del antiguo pueblo pesquero, su vida se ve alterada cuando un equipo "científico" liderado por su exnovio y marino biológico Richard aparece buscando tres tiburones toro que son algo más de lo que aparentan en un principio.
















Código:
Unique ID                                : 211493609590212857795845470999067330775 (0x9F1C3004F4EB28FB3E5D7A90447988D7)
Complete name                            : Deep Blue Sea 3 (2020) 1080p AMZN WEB-DL Dual Latino-Inglés [Sub-Lat-Ing].mkv
Format                                   : Matroska
Format version                           : Version 4
File size                                : 7.21 GiB
Duration                                 : 1 h 40 min
Overall bit rate                         : 10.3 Mb/s
Movie name                               : Deep Blue Sea 3 (2020) 1080p AMZN WEB-DL Dual Latino-Inglés [www.club-hd.com]
Encoded date                             : UTC 2020-07-28 15:38:20
Writing application                      : mkvmerge v46.0.0 ('No Deeper Escape') 64-bit
Writing library                          : libebml v1.3.10 + libmatroska v1.5.2

Video
ID                                       : 1
Format                                   : AVC
Format/Info                              : Advanced Video Codec
Format profile                           : High@L4
Format settings                          : CABAC / 4 Ref Frames
Format settings, CABAC                   : Yes
Format settings, Reference frames        : 4 frames
Codec ID                                 : V_MPEG4/ISO/AVC
Duration                                 : 1 h 40 min
Bit rate mode                            : Constant
Bit rate                                 : 9 292 kb/s
Nominal bit rate                         : 10 000 kb/s
Width                                    : 1 920 pixels
Height                                   : 800 pixels
Display aspect ratio                     : 2.40:1
Frame rate mode                          : Constant
Frame rate                               : 23.976 (24000/1001) FPS
Color space                              : YUV
Chroma subsampling                       : 4:2:0
Bit depth                                : 8 bits
Scan type                                : Progressive
Bits/(Pixel*Frame)                       : 0.252
Stream size                              : 6.49 GiB (90%)
Title                                    : Deep Blue Sea 3 (2020) 1080p AMZN WEB-DL Dual Latino-Inglés [Sub-Lat-Ing]
Default                                  : Yes
Forced                                   : No
Color range                              : Limited
Color primaries                          : BT.709
Transfer characteristics                 : BT.709
Matrix coefficients                      : BT.709

Audio #1
ID                                       : 2
Format                                   : AC-3
Format/Info                              : Audio Coding 3
Commercial name                          : Dolby Digital
Codec ID                                 : A_AC3
Duration                                 : 1 h 40 min
Bit rate mode                            : Constant
Bit rate                                 : 384 kb/s
Channel(s)                               : 6 channels
Channel layout                           : L R C LFE Ls Rs
Sampling rate                            : 48.0 kHz
Frame rate                               : 31.250 FPS (1536 SPF)
Compression mode                         : Lossy
Delay relative to video                  : 24 ms
Stream size                              : 275 MiB (4%)
Title                                    : Latino 5.1 [iTunes]
Language                                 : Spanish
Service kind                             : Complete Main
Default                                  : Yes
Forced                                   : No

Audio #2
ID                                       : 3
Format                                   : E-AC-3
Format/Info                              : Enhanced AC-3
Commercial name                          : Dolby Digital Plus
Codec ID                                 : A_EAC3
Duration                                 : 1 h 40 min
Bit rate mode                            : Constant
Bit rate                                 : 640 kb/s
Channel(s)                               : 6 channels
Channel layout                           : L R C LFE Ls Rs
Sampling rate                            : 48.0 kHz
Frame rate                               : 31.250 FPS (1536 SPF)
Compression mode                         : Lossy
Stream size                              : 458 MiB (6%)
Title                                    : Inglés 5.1
Language                                 : English
Service kind                             : Complete Main
Default                                  : No
Forced                                   : No

Text #1
ID                                       : 4
Format                                   : UTF-8
Codec ID                                 : S_TEXT/UTF8
Codec ID/Info                            : UTF-8 Plain Text
Duration                                 : 1 h 30 min
Bit rate                                 : 51 b/s
Count of elements                        : 1042
Stream size                              : 34.0 KiB (0%)
Title                                    : Completos [SRT]
Language                                 : Spanish
Default                                  : No
Forced                                   : No

Text #2
ID                                       : 5
Format                                   : UTF-8
Codec ID                                 : S_TEXT/UTF8
Codec ID/Info                            : UTF-8 Plain Text
Duration                                 : 57 min 41 s
Bit rate                                 : 0 b/s
Count of elements                        : 2
Stream size                              : 59.0 Bytes (0%)
Title                                    : Forzados [SRT]
Language                                 : Spanish
Default                                  : No
Forced                                   : Yes

Text #3
ID                                       : 6
Format                                   : UTF-8
Codec ID                                 : S_TEXT/UTF8
Codec ID/Info                            : UTF-8 Plain Text
Duration                                 : 1 h 30 min
Bit rate                                 : 50 b/s
Count of elements                        : 1079
Stream size                              : 33.7 KiB (0%)
Title                                    : Completos [SRT]
Language                                 : English
Default                                  : No
Forced                                   : No

Text #4
ID                                       : 7
Format                                   : UTF-8
Codec ID                                 : S_TEXT/UTF8
Codec ID/Info                            : UTF-8 Plain Text
Duration                                 : 1 h 39 min
Bit rate                                 : 53 b/s
Count of elements                        : 1415
Stream size                              : 39.2 KiB (0%)
Title                                    : Completos [SRT-SDH]
Language                                 : English
Default                                  : No
Forced                                   : No

www.club-hd.com







Enlaces de Mega y Google Drive solo disponibles para Miembros VIP

Compra tu Membresía VIP y apoya a Club-HD!

ATENCIÓN! Tenemos TODO el material de Club-HD disponible por Mega y Google Drive, enlaces 100% activos y online hasta la fecha

Llévate tus cuentas Mega PRO II gratis con tu membresía VIP!
Todos los posts vivos con links de Mega y Google Drive.
Todo el material de Club-HD desbloqueado y sin publicidad.

Click Aquí para más información.


Enlaces de Mega y Google Drive solo disponibles para Miembros VIP

Compra tu Membresía VIP y apoya a Club-HD!

ATENCIÓN! Tenemos TODO el material de Club-HD disponible por Mega y Google Drive, enlaces 100% activos y online hasta la fecha

Llévate tus cuentas Mega PRO II gratis con tu membresía VIP!
Todos los posts vivos con links de Mega y Google Drive.
Todo el material de Club-HD desbloqueado y sin publicidad.

Click Aquí para más información.

Para ver este contenido oculto, debes dar click en una de las siguientes reacciones: Like Like, Love Love, Haha Haha, Wow Wow, Sad Sad, Angry Angry

Para ver este contenido oculto, debes dar click en una de las siguientes reacciones: Like Like, Love Love, Haha Haha, Wow Wow, Sad Sad, Angry Angry

Para ver este contenido oculto, debes dar click en una de las siguientes reacciones: Like Like, Love Love, Haha Haha, Wow Wow, Sad Sad, Angry Angry


Para ver este contenido oculto, debes dar click en una de las siguientes reacciones: Like Like, Love Love, Haha Haha, Wow Wow, Sad Sad, Angry Angry
 

ERRE

Well-known member
Registrado
28 Ago 2012
Mensajes
2,217
Puntos de reacción
171
Puntos
63
Gracias...😄
 

rachi

Active member
Registrado
21 Jul 2018
Mensajes
667
Puntos de reacción
75
Puntos
28
Gracias por el aporte
 

El14mago

Well-known member
Miembro VIP
Registrado
10 Sep 2014
Mensajes
1,026
Puntos de reacción
50
Puntos
48
Edad
51
Gracias por el aporte.-
 

galiel38

Active member
Registrado
28 Sep 2012
Mensajes
691
Puntos de reacción
79
Puntos
28
Edad
32
muchas gracias por la película.
 

kempes54

Well-known member
Miembro VIP
Registrado
28 Ago 2012
Mensajes
727
Puntos de reacción
301
Puntos
63
Gracias Tk
 

Usuarios Que Están Viendo Este Tema (Total: 1, Miembros: 0, Invitados: 1)

Arriba