Defending Jacob The Complete First Season (2020) 720p APTV Dual Latino-Inglés [Subt.Esp] (Drama)

Tr3vor

Well-known member
Uploader
Colaborador
Registro
17 May 2018
Mensajes
1.079
Reacciones
11.095
Puntos
113
Edad
32

Reputation:






Andy Barber, un ayudante del fiscal, se enfrenta a un caso de asesinato cuyas pruebas conducen a su hijo. Andy se encuentra dividido entre su deber de defender la justicia y el amor a su hijo.


MEDIAINFO
Código:
Format                      : Matroska
Format version              : Version 4
File size                   : 1.99 GiB
Duration                    : 1 h 5 min
Overall bit rate            : 4 375 kb/s
Encoded date                : UTC 2021-09-08 01:38:40
Writing application         : mkvmerge v59.0.0 ('Shining Star') 64-bit
Writing library             : libebml v1.4.2 + libmatroska v1.6.4

Video
ID                          : 1
Format                      : AVC
Format/Info                 : Advanced Video Codec
Format profile              : High@L3.2
Format settings             : CABAC / 5 Ref Frames
Format settings, CABAC      : Yes
Format settings, Reference  : 5 frames
Codec ID                    : V_MPEG4/ISO/AVC
Duration                    : 1 h 5 min
Bit rate                    : 2 836 kb/s
Width                       : 1 356 pixels
Height                      : 678 pixels
Display aspect ratio        : 2.000
Frame rate mode             : Variable
Frame rate                  : 24.663 FPS
Color space                 : YUV
Chroma subsampling          : 4:2:0
Bit depth                   : 8 bits
Scan type                   : Progressive
Bits/(Pixel*Frame)          : 0.125
Stream size                 : 1.29 GiB (65%)
Default                     : Yes
Forced                      : No
Color range                 : Limited
Color primaries             : BT.709
Transfer characteristics    : BT.709
Matrix coefficients         : BT.709

Audio #1
ID                          : 2
Format                      : E-AC-3 JOC
Format/Info                 : Enhanced AC-3 with Joint Object Coding
Commercial name             : Dolby Digital Plus with Dolby Atmos
Codec ID                    : A_EAC3
Duration                    : 1 h 5 min
Bit rate mode               : Constant
Bit rate                    : 768 kb/s
Channel(s)                  : 6 channels
Channel layout              : L R C LFE Ls Rs
Sampling rate               : 48.0 kHz
Frame rate                  : 31.250 FPS (1536 SPF)
Compression mode            : Lossy
Stream size                 : 358 MiB (18%)
Title                       : English
Language                    : English
Service kind                : Complete Main
Default                     : Yes
Forced                      : No
Complexity index            : 16
Number of dynamic objects   : 15
Bed channel count           : 1 channel
Bed channel configuration   : LFE

Audio #2
ID                          : 3
Format                      : E-AC-3 JOC
Format/Info                 : Enhanced AC-3 with Joint Object Coding
Commercial name             : Dolby Digital Plus with Dolby Atmos
Codec ID                    : A_EAC3
Duration                    : 1 h 5 min
Bit rate mode               : Constant
Bit rate                    : 768 kb/s
Channel(s)                  : 6 channels
Channel layout              : L R C LFE Ls Rs
Sampling rate               : 48.0 kHz
Frame rate                  : 31.250 FPS (1536 SPF)
Compression mode            : Lossy
Stream size                 : 358 MiB (18%)
Title                       : Español (Latinoamérica)
Language                    : Spanish
Service kind                : Complete Main
Default                     : Yes
Forced                      : No
Complexity index            : 16
Number of dynamic objects   : 15
Bed channel count           : 1 channel
Bed channel configuration   : LFE

Text #1
ID                          : 4
Format                      : UTF-8
Codec ID                    : S_TEXT/UTF8
Codec ID/Info               : UTF-8 Plain Text
Duration                    : 59 min 46 s
Bit rate                    : 49 b/s
Count of elements           : 699
Stream size                 : 21.9 KiB (0%)
Title                       : English
Language                    : English
Default                     : No
Forced                      : No

Text #2
ID                          : 5
Format                      : UTF-8
Codec ID                    : S_TEXT/UTF8
Codec ID/Info               : UTF-8 Plain Text
Duration                    : 1 h 2 min
Bit rate                    : 51 b/s
Count of elements           : 772
Stream size                 : 23.5 KiB (0%)
Title                       : English
Language                    : English
Default                     : No
Forced                      : No

Text #3
ID                          : 6
Format                      : UTF-8
Codec ID                    : S_TEXT/UTF8
Codec ID/Info               : UTF-8 Plain Text
Duration                    : 1 h 4 min
Bit rate                    : 45 b/s
Count of elements           : 703
Stream size                 : 21.5 KiB (0%)
Title                       : Español (Latinoamérica)
Language                    : Spanish
Default                     : No
Forced                      : No

Text #4
ID                          : 7
Format                      : UTF-8
Codec ID                    : S_TEXT/UTF8
Codec ID/Info               : UTF-8 Plain Text
Duration                    : 1 h 2 min
Bit rate                    : 50 b/s
Count of elements           : 781
Stream size                 : 23.5 KiB (0%)
Title                       : Español (Latinoamérica)
Language                    : Spanish
Default                     : No
Forced                      : No

Text #5
ID                          : 8
Format                      : UTF-8
Codec ID                    : S_TEXT/UTF8
Codec ID/Info               : UTF-8 Plain Text
Duration                    : 57 min 2 s
Bit rate                    : 0 b/s
Count of elements           : 3
Stream size                 : 88.0 Bytes (0%)
Title                       : Español (Latinoamérica) (forced)
Language                    : Spanish
Default                     : No
Forced                      : No












Enlaces de Mega y Fireload solo disponibles para Miembros VIP

Compra tu Membresía VIP y apoya a Club-HD!

ATENCIÓN! Tenemos TODO el material de Club-HD disponible por Mega y Fireload, enlaces 100% activos y online hasta la fecha

Llévate tus cuentas Mega PRO II gratis con tu membresía VIP!
Todos los posts vivos con links de Mega y Fireload.
Todo el material de Club-HD desbloqueado y sin publicidad.

Click Aquí para más información.


Enlaces de Mega y Fireload solo disponibles para Miembros VIP

Compra tu Membresía VIP y apoya a Club-HD!

ATENCIÓN! Tenemos TODO el material de Club-HD disponible por Mega y Fireload, enlaces 100% activos y online hasta la fecha

Llévate tus cuentas Mega PRO II gratis con tu membresía VIP!
Todos los posts vivos con links de Mega y Fireload.
Todo el material de Club-HD desbloqueado y sin publicidad.

Click Aquí para más información.
 

Tr3vor

Well-known member
Uploader
Colaborador
Registro
17 May 2018
Mensajes
1.079
Reacciones
11.095
Puntos
113
Edad
32

Reputation:

Aun se esta terminando de subir tube que postear asi ya que dispongo de poco tiempo debido ando full de trabajo
 

cristiangonzalo

Well-known member
Registro
21 Oct 2012
Mensajes
815
Reacciones
471
Puntos
63
Edad
33

Reputation:

Muchas gracias, es una serie muy muy recomendada, quedas con gusto poco. un abrazo.
 

Crack20

𝙀𝙡 𝙐𝙡𝙩𝙧𝙖 𝙄𝙣𝙨𝙩𝙞𝙣𝙩𝙤
Colaborador
Registro
1 Jul 2015
Mensajes
722
Reacciones
3.211
Puntos
93
Edad
28
Ubicación
惑星ベジータ

Reputation:

El programa está bueno. no lo conocía, gracias por compartirlo en esta definición.
Es bastante realista, eso me gusto.
(y)
 

Usuarios Que Están Viendo Este Tema (Total: 1, Miembros: 0, Invitados: 1)

Arriba