Defiance (2008) 720p BDRip Dual Latino-Inglés [Subt. Esp] (Bélico. Drama)

Maestro Revolver

Well-known member
Miembro del Staff
Administrador
Registro
9 Ago 2012
Mensajes
3.567








TÍTULO ORIGINAL: Defiance
AÑO: 2008
DURACIÓN: 137 min.
PAÍS: USA
DIRECTOR: Edward Zwick
GUIÓN: Edward Zwick, Clay Frohman (Libro: Nechama Tec)
REPARTO: Daniel Craig, Liev Schreiber, Jamie Bell, Alexa Davalos, Allan Corduner, Mark Feuerstein, Mia Wasikowska, George MacKay, Iben Hjejle, Allan Corduner, Tomas Arana, Jodhi May
PRODUCTORA: Paramount Vantage / The Bedford Falls Company / Grosvenor Park Productions
GÉNERO: Bélico. Drama | II Guerra Mundial. Holocausto. Basado en hechos reales
: http://www.imdb.com/title/tt1034303/

PREMIOS: 2008: Nominada al Oscar: Mejor banda sonora original
2008: Nominada al Globo de Oro: Mejor banda sonora original







Segunda Guerra Mundial, 1941. Los judíos de Europa Oriental están siendo masacrados a millares. En la Bielorrusia ocupada, los hermanos Bielski (Daniel Craig, Liev Schreiber y Jamie Bell) logran escapar de una muerte segura y se refugian en los frondosos y familiares bosques que circundan su casa. A partir de entonces, lucharán no sólo por su propia supervivencia frente a los nazis, sino que salvarán a miles de personas. A medida que se extienden los rumores sobre su entrega y coraje, otras personas de toda clase y condición se unen a ellos y se muestran dispuestos a arriesgarlo todo por un instante de libertad.


























La pelicula NO tiene ninguna marca... solo colocamos el nombre de esta web en las capturas






Código:
General
Format                                   : Matroska
Format version                           : Version 2
File size                                : 3.36 GiB
Duration                                 : 2h 16mn
Overall bit rate                         : 3 513 Kbps
Movie name                               : www.club-hd.com
Encoded date                             : UTC 2013-09-28 18:08:17
Writing application                      : mkvmerge v5.7.0 ('The Whirlwind') built on Jul  8 2012 20:08:51
Writing library                          : libebml v1.2.3 + libmatroska v1.3.0

Video
ID                                       : 1
Format                                   : AVC
Format/Info                              : Advanced Video Codec
Format profile                           : High@L4.1
Format settings, CABAC                   : Yes
Format settings, ReFrames                : 10 frames
Codec ID                                 : V_MPEG4/ISO/AVC
Duration                                 : 2h 16mn
Bit rate                                 : 2 615 Kbps
Width                                    : 1 280 pixels
Height                                   : 688 pixels
Display aspect ratio                     : 1.85:1
Frame rate mode                          : Constant
Frame rate                               : 23.976 fps
Color space                              : YUV
Chroma subsampling                       : 4:2:0
Bit depth                                : 8 bits
Scan type                                : Progressive
Bits/(Pixel*Frame)                       : 0.124
Stream size                              : 2.43 GiB (73%)
Title                                    : www.club-hd.com
Writing library                          : x264 core 67 r1145M d2e1e1c
Language                                 : English
Default                                  : Yes
Forced                                   : No

Audio #1
ID                                       : 2
Format                                   : AC-3
Format/Info                              : Audio Coding 3
Mode extension                           : CM (complete main)
Format settings, Endianness              : Big
Codec ID                                 : A_AC3
Duration                                 : 2h 16mn
Bit rate mode                            : Constant
Bit rate                                 : 448 Kbps
Channel(s)                               : 6 channels
Channel positions                        : Front: L C R, Side: L R, LFE
Sampling rate                            : 48.0 KHz
Bit depth                                : 16 bits
Compression mode                         : Lossy
Stream size                              : 438 MiB (13%)
Title                                    : www.club-hd.com  >>  Latino
Language                                 : Spanish
Default                                  : Yes
Forced                                   : No

Audio #2
ID                                       : 3
Format                                   : AC-3
Format/Info                              : Audio Coding 3
Mode extension                           : CM (complete main)
Format settings, Endianness              : Big
Codec ID                                 : A_AC3
Duration                                 : 2h 16mn
Bit rate mode                            : Constant
Bit rate                                 : 448 Kbps
Channel(s)                               : 6 channels
Channel positions                        : Front: L C R, Side: L R, LFE
Sampling rate                            : 48.0 KHz
Bit depth                                : 16 bits
Compression mode                         : Lossy
Stream size                              : 438 MiB (13%)
Title                                    : www.club-hd.com  >>  Inglés
Language                                 : English
Default                                  : No
Forced                                   : No

Text #1
ID                                       : 4
Format                                   : UTF-8
Codec ID                                 : S_TEXT/UTF8
Codec ID/Info                            : UTF-8 Plain Text
Title                                    : Forzados
Language                                 : Spanish
Default                                  : Yes
Forced                                   : No

Text #2
ID                                       : 5
Format                                   : UTF-8
Codec ID                                 : S_TEXT/UTF8
Codec ID/Info                            : UTF-8 Plain Text
Language                                 : Spanish
Default                                  : No
Forced                                   : No






Nota: Me tome mi tiempo para crear los Subtítulos Forzados Para las partes donde hablan en Alemán y Ruso, para que puedan disfrutar de esta excelente película como se merece.

Saludos amigos, Revolver









Enlaces de Mega y Google Drive solo disponibles para Miembros VIP

Compra tu Membresía VIP y apoya a Club-HD!

ATENCIÓN! Tenemos TODO el material de Club-HD disponible por Mega y Google Drive, enlaces 100% activos y online hasta la fecha

Llévate tus cuentas Mega PRO III gratis con tu membresía VIP!
Todos los posts vivos con links de Mega y Google Drive.
Todo el material de Club-HD desbloqueado y sin publicidad.

Click Aquí para más información.


Enlaces de Mega y Google Drive solo disponibles para Miembros VIP

Compra tu Membresía VIP y apoya a Club-HD!

ATENCIÓN! Tenemos TODO el material de Club-HD disponible por Mega y Google Drive, enlaces 100% activos y online hasta la fecha

Llévate tus cuentas Mega PRO III gratis con tu membresía VIP!
Todos los posts vivos con links de Mega y Google Drive.
Todo el material de Club-HD desbloqueado y sin publicidad.

Click Aquí para más información.


Para ver este contenido oculto, debes dar click en una de las siguientes reacciones : Like Like, Love Love, Haha Haha, Wow Wow, Sad Sad, Angry Angry


Para ver este contenido oculto, debes dar click en una de las siguientes reacciones : Like Like, Love Love, Haha Haha, Wow Wow, Sad Sad, Angry Angry
 
Última edición por un moderador:

HemoAr

Dohko de Libra
Administrador
Uploader
Miembro VIP
Registro
9 Mar 2013
Mensajes
10.597
Ubicación
Rozan
Pnsand0Pnsand0 Esta peli la vi, pero no la recuerdo bien. Ahora a la podre ver y la recordare perfectamente. Aun pude alcanzar algo para descargar. Gracias Master Revolver22 LXR_2LXR_2
 

Usuarios Que Están Viendo Este Tema (Total: 1, Miembros: 0, Invitados: 1)

Quién Leyó Este Tema (Total Miembros: 2)

Arriba