Despicable Me 2 (2013) 1080p BDRip Dual Latino-Inglés [Subt. Esp] (Animación)

Maestro Revolver

Well-known member
Miembro del Staff
Administrador
Registro
9 Ago 2012
Mensajes
3.567








TÍTULO ORIGINAL: Despicable Me 2
AÑO: 2013
DURACIÓN: 98 min.
PAÍS: USA
DIRECTOR: Pierre Coffin, Chris Renaud
GUIÓN: Ken Daurio, Cinco Paul
REPARTO: Animation
PRODUCTORA: Illumination Entertainment / Universal Pictures
GÉNERO: Animación. Comedia. Ciencia ficción. Infantil | Familia. Secuela. 3-D
: http://www.imdb.com/title/tt1690953/






Ahora que el incansable y emprendedor Gru ha dejado atrás una vida dedicada a las fechorías para criar a Margo, Edith y Agnes, dispone de mucho tiempo libre para disfrutarlo con ellas, el Dr. Nefario y los minions. Pero, justo cuando empieza a adaptarse a su papel de hombre de familia, una organización mundial ultrasecreta dedicada a la lucha contra el mal llama a su puerta. Junto con su nueva compañera de aventuras, Lucy Wilde, Gru tendrá que descubrir quién es el responsable de un espectacular y malévolo plan y llevarlo ante la justicia. Y es que hace falta echar mano del mayor ex-villano del mundo para atrapar a quien aspira a ocupar ese lugar.
























La pelicula NO tiene ninguna marca... solo colocamos el nombre de esta web en las capturas






Código:
General
Format                                   : Matroska
Format version                           : Version 2
File size                                : 6.34 GiB
Duration                                 : 1h 37mn
Overall bit rate                         : 9 271 Kbps
Movie name                               : www.club-hd.com
Encoded date                             : UTC 2013-10-19 19:06:55
Writing application                      : mkvmerge v5.7.0 ('The Whirlwind') built on Jul  8 2012 20:08:51
Writing library                          : libebml v1.2.3 + libmatroska v1.3.0

Video
ID                                       : 1
Format                                   : AVC
Format/Info                              : Advanced Video Codec
Format profile                           : High@L4.1
Format settings, CABAC                   : Yes
Format settings, ReFrames                : 4 frames
Codec ID                                 : V_MPEG4/ISO/AVC
Duration                                 : 1h 37mn
Bit rate                                 : 6 481 Kbps
Width                                    : 1 920 pixels
Height                                   : 1 040 pixels
Display aspect ratio                     : 1.85:1
Frame rate mode                          : Constant
Frame rate                               : 23.976 fps
Color space                              : YUV
Chroma subsampling                       : 4:2:0
Bit depth                                : 8 bits
Scan type                                : Progressive
Bits/(Pixel*Frame)                       : 0.135
Stream size                              : 4.31 GiB (68%)
Title                                    : www.club-hd.com
Writing library                          : x264 core 135 r2345 f0c1c53
Language                                 : English
Default                                  : Yes
Forced                                   : No

Audio #1
ID                                       : 2
Format                                   : AC-3
Format/Info                              : Audio Coding 3
Mode extension                           : CM (complete main)
Format settings, Endianness              : Big
Codec ID                                 : A_AC3
Duration                                 : 1h 37mn
Bit rate mode                            : Constant
Bit rate                                 : 640 Kbps
Channel(s)                               : 6 channels
Channel positions                        : Front: L C R, Side: L R, LFE
Sampling rate                            : 48.0 KHz
Bit depth                                : 16 bits
Compression mode                         : Lossy
Stream size                              : 449 MiB (7%)
Title                                    : www.club-hd.com  >>  Latino AC3 5.1
Language                                 : Spanish
Default                                  : Yes
Forced                                   : No

Audio #2
ID                                       : 3
Format                                   : AC-3
Format/Info                              : Audio Coding 3
Mode extension                           : CM (complete main)
Format settings, Endianness              : Big
Codec ID                                 : A_AC3
Duration                                 : 1h 37mn
Bit rate mode                            : Constant
Bit rate                                 : 640 Kbps
Channel(s)                               : 6 channels
Channel positions                        : Front: L C R, Side: L R, LFE
Sampling rate                            : 48.0 KHz
Bit depth                                : 16 bits
Compression mode                         : Lossy
Stream size                              : 449 MiB (7%)
Title                                    : www.club-hd.com  >>  Inglés AC3 5.1
Language                                 : English
Default                                  : No
Forced                                   : No

Audio #3
ID                                       : 4
Format                                   : DTS
Format/Info                              : Digital Theater Systems
Mode                                     : 16
Format settings, Endianness              : Big
Codec ID                                 : A_DTS
Duration                                 : 1h 37mn
Bit rate mode                            : Constant
Bit rate                                 : 1 509 Kbps
Channel(s)                               : 6 channels
Channel positions                        : Front: L C R, Side: L R, LFE
Sampling rate                            : 48.0 KHz
Bit depth                                : 24 bits
Compression mode                         : Lossy
Stream size                              : 1.03 GiB (16%)
Title                                    : www.club-hd.com  >>  Inglés DTS 5.1
Language                                 : English
Default                                  : No
Forced                                   : No

Text
ID                                       : 5
Format                                   : UTF-8
Codec ID                                 : S_TEXT/UTF8
Codec ID/Info                            : UTF-8 Plain Text
Language                                 : Spanish
Default                                  : No
Forced                                   : No

Menu
00:00:00.000                             : en:00:00:00.000
00:03:22.994                             : en:00:03:22.994
00:08:04.734                             : en:00:08:04.734
00:15:50.867                             : en:00:15:50.867
00:18:28.232                             : en:00:18:28.232
00:24:36.892                             : en:00:24:36.892
00:30:50.724                             : en:00:30:50.724
00:34:40.704                             : en:00:34:40.704
00:40:48.279                             : en:00:40:48.279
00:46:26.200                             : en:00:46:26.200
00:51:23.122                             : en:00:51:23.122
00:56:27.426                             : en:00:56:27.426
01:00:00.472                             : en:01:00:00.472
01:03:27.053                             : en:01:03:27.053
01:08:44.078                             : en:01:08:44.078
01:14:01.979                             : en:01:14:01.979
01:18:08.058                             : en:01:18:08.058
01:22:33.907                             : en:01:22:33.907
01:27:09.099                             : en:01:27:09.099
01:30:33.720                             : en:01:30:33.720








Enlaces de Mega y Google Drive solo disponibles para Miembros VIP

Compra tu Membresía VIP y apoya a Club-HD!

ATENCIÓN! Tenemos TODO el material de Club-HD disponible por Mega y Google Drive, enlaces 100% activos y online hasta la fecha

Llévate tus cuentas Mega PRO III gratis con tu membresía VIP!
Todos los posts vivos con links de Mega y Google Drive.
Todo el material de Club-HD desbloqueado y sin publicidad.

Click Aquí para más información.


Enlaces de Mega y Google Drive solo disponibles para Miembros VIP

Compra tu Membresía VIP y apoya a Club-HD!

ATENCIÓN! Tenemos TODO el material de Club-HD disponible por Mega y Google Drive, enlaces 100% activos y online hasta la fecha

Llévate tus cuentas Mega PRO III gratis con tu membresía VIP!
Todos los posts vivos con links de Mega y Google Drive.
Todo el material de Club-HD desbloqueado y sin publicidad.

Click Aquí para más información.


Para ver este contenido oculto, debes dar click en una de las siguientes reacciones : Like Like, Love Love, Haha Haha, Wow Wow, Sad Sad, Angry Angry


Para ver este contenido oculto, debes dar click en una de las siguientes reacciones : Like Like, Love Love, Haha Haha, Wow Wow, Sad Sad, Angry Angry
 
Última edición por un moderador:

Joker

Well-known member
Miembro del Staff
Súper Moderador
Registro
27 Ago 2012
Mensajes
1.349
Ubicación
Arkham Asylum
Desc_g_

Excelente Master!!!Que gran película acabas de subir :LXR:...

Esta también la vi en el cine :p... Recomendadisima, esta buena como la primera si no es que mejor, esos Minions no paran de hacerte reir S_T1

Muchas Gracias Master!!! :aplausos::aplausos:apls:

Saludos :D

 

Usuarios Que Están Viendo Este Tema (Total: 1, Miembros: 0, Invitados: 1)

Quién Leyó Este Tema (Total Miembros: 4)

Arriba