Disconnect (2012) m-720p BDRip Audio Inglés [Subt. Esp] (Drama. Thriller)

Maestro Revolver

Well-known member
Miembro del Staff
Administrador
Registro
9 Ago 2012
Mensajes
3.567








TÍTULO ORIGINAL: Disconnect
AÑO: 2012
DURACIÓN: 115 min.
PAÍS: USA
DIRECTOR: Henry Alex Rubin
GUIÓN: Andrew Stern
REPARTO: Jason Bateman, Hope Davis, Frank Grillo, Paula Patton, Andrea Riseborough, Alexander Skarsgård, Michael Nyqvist, Max Thieriot, Jonah Bobo
PRODUCTORA: LD Entertainment / Wonderful Films
GÉNERO: Drama. Thriller | Historias cruzadas. Internet/Informática
: http://www.imdb.com/title/tt1433811/






Historia sobre la incomunicación centrada en un grupo de personas en busca de conexiones humanas en el interconectado mundo de hoy de las redes sociales, Twitter, Facebook, etc.
























La pelicula NO tiene ninguna marca... solo colocamos el nombre de esta web en las capturas






Código:
General
Format                                   : Matroska
Format version                           : Version 2
File size                                : 2.60 GiB
Duration                                 : 1h 55mn
Overall bit rate                         : 3 219 Kbps
Movie name                               : www.club-hd.com
Encoded date                             : UTC 2013-09-06 15:36:56
Writing application                      : mkvmerge v5.7.0 ('The Whirlwind') built on Jul  8 2012 20:08:51
Writing library                          : libebml v1.2.3 + libmatroska v1.3.0

Video
ID                                       : 1
Format                                   : AVC
Format/Info                              : Advanced Video Codec
Format profile                           : High@L4.1
Format settings, CABAC                   : Yes
Format settings, ReFrames                : 6 frames
Codec ID                                 : V_MPEG4/ISO/AVC
Duration                                 : 1h 55mn
Bit rate                                 : 2 707 Kbps
Width                                    : 1 280 pixels
Height                                   : 694 pixels
Display aspect ratio                     : 1.85:1
Frame rate mode                          : Constant
Frame rate                               : 23.976 fps
Color space                              : YUV
Chroma subsampling                       : 4:2:0
Bit depth                                : 8 bits
Scan type                                : Progressive
Bits/(Pixel*Frame)                       : 0.127
Stream size                              : 2.19 GiB (84%)
Title                                    : www.club-hd.com
Writing library                          : x264 core 133 r2334 a3ac64b
Language                                 : English
Default                                  : Yes
Forced                                   : No

Audio
ID                                       : 2
Format                                   : AC-3
Format/Info                              : Audio Coding 3
Mode extension                           : CM (complete main)
Format settings, Endianness              : Big
Codec ID                                 : A_AC3
Duration                                 : 1h 55mn
Bit rate mode                            : Constant
Bit rate                                 : 448 Kbps
Channel(s)                               : 6 channels
Channel positions                        : Front: L C R, Side: L R, LFE
Sampling rate                            : 48.0 KHz
Bit depth                                : 16 bits
Compression mode                         : Lossy
Stream size                              : 371 MiB (14%)
Title                                    : www.club-hd.com
Language                                 : English
Default                                  : Yes
Forced                                   : No

Text
ID                                       : 3
Format                                   : UTF-8
Codec ID                                 : S_TEXT/UTF8
Codec ID/Info                            : UTF-8 Plain Text
Title                                    : www.club-hd.com
Language                                 : Spanish
Default                                  : Yes
Forced                                   : No

Menu
00:00:00.000                             : en:00:00:00.000
00:07:07.344                             : en:00:07:07.344
00:13:45.158                             : en:00:13:45.158
00:19:52.316                             : en:00:19:52.316
00:24:54.868                             : en:00:24:54.868
00:29:57.254                             : en:00:29:57.254
00:37:49.267                             : en:00:37:49.267
00:45:17.465                             : en:00:45:17.465
00:51:18.450                             : en:00:51:18.450
00:58:34.010                             : en:00:58:34.010
01:04:35.622                             : en:01:04:35.622
01:10:56.961                             : en:01:10:56.961
01:17:00.199                             : en:01:17:00.199
01:22:32.948                             : en:01:22:32.948
01:31:25.438                             : en:01:31:25.438
01:42:54.001                             : en:01:42:54.001








Enlaces de Mega y Google Drive solo disponibles para Miembros VIP

Compra tu Membresía VIP y apoya a Club-HD!

ATENCIÓN! Tenemos TODO el material de Club-HD disponible por Mega y Google Drive, enlaces 100% activos y online hasta la fecha

Llévate tus cuentas Mega PRO III gratis con tu membresía VIP!
Todos los posts vivos con links de Mega y Google Drive.
Todo el material de Club-HD desbloqueado y sin publicidad.

Click Aquí para más información.


Para ver este contenido oculto, debes dar click en una de las siguientes reacciones : Like Like, Love Love, Haha Haha, Wow Wow, Sad Sad, Angry Angry

 
Última edición por un moderador:

Lcreme

Well-known member
Registro
27 Ago 2012
Mensajes
2.090
Bajando a ver que tal esta... tiene buenas criticas gracias :)!
 

DoomsDay Elite

Well-known member
Registro
5 Sep 2012
Mensajes
1.222
y asi esta el master con gran animo nos trae nuevas películas al menos 3 por día o mas de 5 por día excelente trabajo !admirable
 

Usuarios Que Están Viendo Este Tema (Total: 1, Miembros: 0, Invitados: 1)

Quién Leyó Este Tema (Total Miembros: 2)

Arriba