Django Unchained (2012) m-720p Dual Latino-Inglés [Subt. Esp] (Western. Acción)

Maestro Revolver

Well-known member
Miembro del Staff
Administrador
Registro
9 Ago 2012
Mensajes
3.569
Reacciones
59.350
Puntos
113

Reputation:









TÍTULO ORIGINAL: Django Unchained
AÑO: 2012
DURACIÓN: 165 min.
PAÍS: USA
DIRECTOR: Quentin Tarantino
GUIÓN: Quentin Tarantino
REPARTO: Jamie Foxx, Christoph Waltz, Leonardo DiCaprio, Kerry Washington, Samuel L. Jackson, Don Johnson, Walton Goggins, James Remar, Dennis Christopher, Michael Parks, Bruce Dern, Franco Nero, Nichole Galicia, Jonah Hill, Tom Savini, M.C. Gainey, RZA, Todd Allen, James Russo, Tom Wopat, Misty Upham, Gerald McRaney, Cooper Huckabee, Laura Cayouette, Amber Tamblyn, David Steen, Zoe Bell, Michael Bowen, Robert Carradine, Quentin Tarantino
PRODUCTORA: Sony Pictures / The Weinstein Company
GÉNERO: Western. Acción. Comedia | Drama sureño. Esclavitud. Racismo. Spaghetti Western. Siglo XIX
: http://www.imdb.com/title/tt1853728/

PREMIOS: 2012: 2 Oscars: mejor guión original y actor secundario (Waltz). 5 nominaciones
2012: 2 Globos de Oro: Mejor guión y actor secundario (Waltz). 5 nominaciones
2012: Critics Choice Awards: Mejor guión original. Nominada a mejor película
2012: 2 Premios BAFTA: Mejor guión y actor secundario (Waltz). 5 nominaciones
2012: National Board of Review (NBR): 10 mejores films y mejor actor sec. (Dicaprio)
2012: Asociación de Críticos de Los Angeles: 2º puesto para mejor actor sec. (Waltz)
2012: American Film Institute: Top 10 - Mejores películas del año






En Texas, dos años antes de estallar la Guerra Civil Americana, King Schultz (Christoph Waltz), un cazarecompensas alemán que le sigue la pista a unos asesinos para cobrar por sus cabezas, le promete al esclavo negro Django (Jamie Foxx) dejarlo en libertad si le ayuda a atraparlos. Él acepta pues luego quiere ir a buscar a su esposa Broomhilda (Kerry Washington), una esclava que están en una plantación del terrateniente Calvin Candie (Leonardo DiCaprio).
























La pelicula NO tiene ninguna marca... solo colocamos el nombre de esta web en las capturas






Código:
General
Format                                   : Matroska
Format version                           : Version 2
File size                                : 4.17 GiB
Duration                                 : 2h 45mn
Overall bit rate                         : 3 611 Kbps
Movie name                               : www.club-hd.com
Encoded date                             : UTC 2013-03-28 00:51:32
Writing application                      : mkvmerge v5.7.0 ('The Whirlwind') built on Jul  8 2012 20:08:51
Writing library                          : libebml v1.2.3 + libmatroska v1.3.0

Video
ID                                       : 1
Format                                   : AVC
Format/Info                              : Advanced Video Codec
Format profile                           : High@L4.1
Format settings, CABAC                   : Yes
Format settings, ReFrames                : 9 frames
Codec ID                                 : V_MPEG4/ISO/AVC
Duration                                 : 2h 45mn
Bit rate                                 : 2 713 Kbps
Width                                    : 1 280 pixels
Height                                   : 534 pixels
Display aspect ratio                     : 2.40:1
Frame rate mode                          : Constant
Frame rate                               : 23.976 fps
Color space                              : YUV
Chroma subsampling                       : 4:2:0
Bit depth                                : 8 bits
Scan type                                : Progressive
Bits/(Pixel*Frame)                       : 0.166
Stream size                              : 3.05 GiB (73%)
Title                                    : www.club-hd.com
Writing library                          : x264 core 130 r2273 b3065e6
Language                                 : English
Default                                  : Yes
Forced                                   : No

Audio #1
ID                                       : 2
Format                                   : AC-3
Format/Info                              : Audio Coding 3
Mode extension                           : CM (complete main)
Format settings, Endianness              : Big
Codec ID                                 : A_AC3
Duration                                 : 2h 45mn
Bit rate mode                            : Constant
Bit rate                                 : 448 Kbps
Channel(s)                               : 6 channels
Channel positions                        : Front: L C R, Side: L R, LFE
Sampling rate                            : 48.0 KHz
Bit depth                                : 16 bits
Compression mode                         : Lossy
Stream size                              : 530 MiB (12%)
Title                                    : www.club-hd.com  >>  Latino
Language                                 : Spanish
Default                                  : Yes
Forced                                   : No

Audio #2
ID                                       : 3
Format                                   : AC-3
Format/Info                              : Audio Coding 3
Mode extension                           : CM (complete main)
Format settings, Endianness              : Big
Codec ID                                 : A_AC3
Duration                                 : 2h 45mn
Bit rate mode                            : Constant
Bit rate                                 : 448 Kbps
Channel(s)                               : 6 channels
Channel positions                        : Front: L C R, Side: L R, LFE
Sampling rate                            : 48.0 KHz
Bit depth                                : 16 bits
Compression mode                         : Lossy
Stream size                              : 530 MiB (12%)
Title                                    : www.club-hd.com  >>  Inglés
Language                                 : English
Default                                  : No
Forced                                   : No

Text
ID                                       : 4
Format                                   : UTF-8
Codec ID                                 : S_TEXT/UTF8
Codec ID/Info                            : UTF-8 Plain Text
Language                                 : Spanish
Default                                  : No
Forced                                   : No

Menu
00:00:00.000                             : en:Chapter 1
00:03:36.466                             : en:Chapter 2
00:12:47.934                             : en:Chapter 3
00:18:49.420                             : en:Chapter 4
00:26:48.273                             : en:Chapter 5
00:31:44.528                             : en:Chapter 6
00:40:27.133                             : en:Chapter 7
00:46:05.513                             : en:Chapter 8
00:52:36.862                             : en:Chapter 9
00:58:12.823                             : en:Chapter 10
01:02:20.320                             : en:Chapter 11
01:12:13.496                             : en:Chapter 12
01:18:35.794                             : en:Chapter 13
01:26:08.038                             : en:Chapter 14
01:34:49.642                             : en:Chapter 15
01:40:52.380                             : en:Chapter 16
01:45:34.036                             : en:Chapter 17
01:50:01.094                             : en:Chapter 18
01:55:03.980                             : en:Chapter 19
02:03:54.969                             : en:Chapter 20
02:08:14.103                             : en:Chapter 21
02:14:14.380                             : en:Chapter 22
02:17:28.991                             : en:Chapter 23
02:22:32.544                             : en:Chapter 24
02:26:28.530                             : en:Chapter 25
02:33:00.463                             : en:Chapter 26
02:35:41.999                             : en:Chapter 27
02:41:30.931                             : en:Chapter 28










Enlaces de Mega y Fireload solo disponibles para Miembros VIP

Compra tu Membresía VIP y apoya a Club-HD!

ATENCIÓN! Tenemos TODO el material de Club-HD disponible por Mega y Fireload, enlaces 100% activos y online hasta la fecha

Llévate tus cuentas Mega PRO II gratis con tu membresía VIP!
Todos los posts vivos con links de Mega y Fireload.
Todo el material de Club-HD desbloqueado y sin publicidad.

Click Aquí para más información.


Enlaces de Mega y Fireload solo disponibles para Miembros VIP

Compra tu Membresía VIP y apoya a Club-HD!

ATENCIÓN! Tenemos TODO el material de Club-HD disponible por Mega y Fireload, enlaces 100% activos y online hasta la fecha

Llévate tus cuentas Mega PRO II gratis con tu membresía VIP!
Todos los posts vivos con links de Mega y Fireload.
Todo el material de Club-HD desbloqueado y sin publicidad.

Click Aquí para más información.



Para ver este contenido oculto, debes dar click en una de las siguientes reacciones : Like Like, Love Love, Haha Haha, Wow Wow, Sad Sad, Angry Angry

 
Última edición:

elgrandario

Well-known member
Registro
29 Ago 2012
Mensajes
1.006
Reacciones
147
Puntos
63
Ubicación
Lima, Perú

Reputation:

ésta versión es la mía. Muchas gracias por subir tan pronto la película. Muchas muchas gracias. A verla en el finde!
 

Ezze

Well-known member
Miembro del Staff
Súper Moderador
Registro
28 Ago 2012
Mensajes
1.663
Reacciones
1.790
Puntos
113
Ubicación
En la Torre de Observación

Reputation:

Wow!!! Que gran aporte!!! :dplgar: Pero me quedo con la versión 1080 xD Saludos bye
 

UlisesAMO

Member
Registro
19 Oct 2012
Mensajes
374
Reacciones
13
Puntos
18
Edad
42

Reputation:

Dicen, los que dicen que saben que es una gran producción de Tarantino. Yo la neta no soy fan de este vato pero veamos que tal esta la movie.
 

Usuarios Que Están Viendo Este Tema (Total: 1, Miembros: 0, Invitados: 1)

Arriba