• Este aviso va dirigido a todos los nuevos miembros recien llegados a Club-HD. Les recordamos que la direccion URL de este sitio web es , asi que deben acceder únicamente por esta URL. Sean todos bienvenidos al Club!

Doom Patrol (2020) S02E02 Tyme Patrol 1080p HMAX WEB-DL Inglés [Subt. Esp] (Serie de TV. Acción)

Bebesaurio

Novio de Vizard
Miembro del Staff
Moderador
Uploader
Registrado
12 Mar 2018
Mensajes
590
Puntos de reacción
14,295
Puntos
93
Edad
21




SINOPSIS

El grupo de héroes más extraño de DC – Cliff Steele alias Robotman (Brendan Fraser), Larry Trainor alias Negative Man (Matt Bomer), Rita Farr alias Elasti-Woman (April Bowlby), Jane alias Crazy Jane (Diane Guerrero), y Victor Stone alias Cyborg (Joivan Wade) – están de vuelta para salvar el mundo. Es decir, si pueden encontrar una manera de crecer… tanto en sentido figurado como literal. Tras la derrota de Mr. Nobody, los miembros de la Doom Patrol se encuentran ahora en miniatura y varados en la pista de coches de carreras de juguete de Cliff.

Aquí comienzan a lidiar con sus sentimientos de traición por Niles Caulder alias El Jefe (Timothy Dalton), mientras se enfrentan a su propio bagaje personal. Y a medida que cada miembro se enfrenta al reto de crecer más allá de sus propias experiencias traumáticas pasadas, deben unirse para abrazar y proteger al miembro más reciente de la familia: Dorothy Spinner (Abigail Shapiro), la hija de Niles, cuyos poderes siguen siendo una misteriosa pero real amenaza para el fin del mundo.

Nota: Los subtitulos son una traduccion de Español (España) pero estos son NEUTROS, quiere decir que NO hay muchos modismos españoles, ejemplo: Gilipoolas, ostias, tio.


MEDIA INFO


General
Unique ID : 317762783767823072625503278213320189621 (0xEF0EE2D3FA672B28B4A8959A0F48A6B5)
Format : Matroska
Format version : Version 4
File size : 3.20 GiB
Duration : 53 min 9 s
Overall bit rate mode : Variable
Overall bit rate : 8 626 kb/s
Encoded date : UTC 2020-06-30 05:48:12
Writing application : mkvmerge v32.0.0 ('Astral Progressions') 64-bit
Writing library : libebml v1.3.7 + libmatroska v1.5.0

Video
ID : 1
Format : AVC
Format/Info : Advanced Video Codec
Format profile : High@L4
Format settings : CABAC / 4 Ref Frames
Format settings, CABAC : Yes
Format settings, Reference frames : 4 frames
Codec ID : V_MPEG4/ISO/AVC
Duration : 53 min 9 s
Bit rate mode : Variable
Bit rate : 8 240 kb/s
Maximum bit rate : 12.4 Mb/s
Width : 1 920 pixels
Height : 1 080 pixels
Display aspect ratio : 16:9
Frame rate mode : Constant
Frame rate : 23.976 (24000/1001) FPS
Color space : YUV
Chroma subsampling : 4:2:0
Bit depth : 8 bits
Scan type : Progressive
Bits/(Pixel*Frame) : 0.166
Stream size : 3.06 GiB (96%)
Language : English
Default : Yes
Forced : No

Audio
ID : 2
Format : AC-3
Format/Info : Audio Coding 3
Commercial name : Dolby Digital
Codec ID : A_AC3
Duration : 53 min 9 s
Bit rate mode : Constant
Bit rate : 384 kb/s
Channel(s) : 6 channels
Channel layout : L R C LFE Ls Rs
Sampling rate : 48.0 kHz
Frame rate : 31.250 FPS (1536 SPF)
Compression mode : Lossy
Stream size : 146 MiB (4%)
Language : English
Service kind : Complete Main
Default : Yes
Forced : No

Text
ID : 3
Format : UTF-8
Codec ID : S_TEXT/UTF8
Codec ID/Info : UTF-8 Plain Text
Duration : 49 min 23 s
Bit rate : 65 b/s
Count of elements : 786
Stream size : 23.8 KiB (0%)
Language : Spanish
Default : Yes
Forced : Yes



CAPTURAS









DESCARGA

ENLACES VIP


Enlaces de Mega y Google Drive solo disponibles para Miembros VIP

Compra tu Membresía VIP y apoya a Club-HD!

ATENCIÓN! Tenemos TODO el material de Club-HD disponible por Mega y Google Drive, enlaces 100% activos y online hasta la fecha

Llévate tus cuentas Mega PRO II gratis con tu membresía VIP!
Todos los posts vivos con links de Mega y Google Drive.
Todo el material de Club-HD desbloqueado y sin publicidad.

Click Aquí para más información.

Enlaces de Mega y Google Drive solo disponibles para Miembros VIP

Compra tu Membresía VIP y apoya a Club-HD!

ATENCIÓN! Tenemos TODO el material de Club-HD disponible por Mega y Google Drive, enlaces 100% activos y online hasta la fecha

Llévate tus cuentas Mega PRO II gratis con tu membresía VIP!
Todos los posts vivos con links de Mega y Google Drive.
Todo el material de Club-HD desbloqueado y sin publicidad.

Click Aquí para más información.


ENLACES FREE


Para ver este contenido oculto, debes dar click en una de las siguientes reacciones: Like Like, Love Love, Haha Haha, Wow Wow, Sad Sad, Angry Angry

Para ver este contenido oculto, debes dar click en una de las siguientes reacciones: Like Like, Love Love, Haha Haha, Wow Wow, Sad Sad, Angry Angry

Para ver este contenido oculto, debes dar click en una de las siguientes reacciones: Like Like, Love Love, Haha Haha, Wow Wow, Sad Sad, Angry Angry

CONTRASEÑA

Código:
www.club-hd.com
 

cripp

Well-known member
Registrado
27 Ago 2012
Mensajes
8,059
Puntos de reacción
463
Puntos
113
Gracias por compartir
 

Usuarios Que Están Viendo Este Tema (Total: 1, Miembros: 0, Invitados: 1)

Arriba