El laberinto del fauno (2006) m-720p Audio Español (Fantástico. Terror)

Maestro Revolver

Well-known member
Miembro del Staff
Administrador
Registro
9 Ago 2012
Mensajes
3.569
Reacciones
59.361
Puntos
113

Reputation:










TÍTULO ORIGINAL: El laberinto del fauno
AÑO: 2006
DURACIÓN: 112 min.
PAÍS: España
DIRECTOR: Guillermo del Toro
GUIÓN: Guillermo del Toro
REPARTO: Ivana Baquero, Sergi López, Maribel Verdú, Doug Jones, Ariadna Gil, Álex Angulo, Federico Luppi, Roger Casamajor, Fernando Tielve, Pepa Pedroche, José Luis Torrijo
PRODUCTORA: Coproducción España-México-USA; Estudios Picasso Fábrica de Ficción / Tequila Gang / Tele5 / Sententia Entertainment
GÉNERO: Fantástico. Terror. Thriller. Drama | Vida rural. Años 40. Posguerra española. Monstruos
: http://www.imdb.com/title/tt0457430/

PREMIOS: 2006: 3 Oscars: Mejor fotografía, dirección artística, maquillaje. 6 Nominaciones
2006: Nominación al Globos de oro: Mejor película de habla no inglesa
2006: 7 Premios Goya, entre ellos guión original, actriz revelación (Baquero)
2006: 3 Premios BAFTA: Mejor vestuario, maquillaje 7 película de habla no inglesa. 8 nom.
2006: Festival de Cannes: Nominada a la Palma de Oro (mejor película)
2006: Círculo de críticos de Nueva York: Mejor director
2006: Asociación de Críticos de Los Angeles: Mejor diseño de producción






Año 1944, posguerra española. Ofelia (Ivana Baquero) y su madre, Carmen (Ariadna Gil), que se encuentra en avanzado estado de gestación, se trasladan a un pequeño pueblo al que ha sido destinado el nuevo marido de Carmen, Vidal (Sergi López), un cruel capitán del ejército franquista por el que la niña no siente ningún afecto. La misión de Vidal es acabar con los últimos miembros de la resistencia republicana que permanecen escondidos en los montes de la zona. Otros personajes son: Mercedes (Maribel Verdú), el ama de llaves, y el médico (Álex Angulo) que se hará cargo del delicado estado de salud de Carmen. Una noche, Ofelia descubre las ruinas de un laberinto, y allí se encuentra con un fauno (Doug Jones), una extraña criatura que le hace una sorprendente revelación: ella es en realidad una princesa, la última de su estirpe, y los suyos la esperan desde hace mucho tiempo. Para poder regresar a su mágico reino, la niña deberá enfrentarse a tres pruebas.
























La pelicula NO tiene ninguna marca... solo colocamos el nombre de esta web en las capturas






Código:
General
Format                                   : Matroska
Format version                           : Version 2
File size                                : 3.00 GiB
Duration                                 : 1h 58mn
Overall bit rate                         : 3 615 Kbps
Movie name                               : www.club-hd.com
Encoded date                             : UTC 2013-01-23 16:23:38
Writing application                      : mkvmerge v5.7.0 ('The Whirlwind') built on Jul  8 2012 20:08:51
Writing library                          : libebml v1.2.3 + libmatroska v1.3.0

Video
ID                                       : 1
Format                                   : AVC
Format/Info                              : Advanced Video Codec
Format profile                           : High@L4.1
Format settings, CABAC                   : Yes
Format settings, ReFrames                : 9 frames
Codec ID                                 : V_MPEG4/ISO/AVC
Duration                                 : 1h 58mn
Bit rate                                 : 2 975 Kbps
Width                                    : 1 280 pixels
Height                                   : 692 pixels
Display aspect ratio                     : 1.85:1
Frame rate mode                          : Constant
Frame rate                               : 23.976 fps
Color space                              : YUV
Chroma subsampling                       : 4:2:0
Bit depth                                : 8 bits
Scan type                                : Progressive
Bits/(Pixel*Frame)                       : 0.140
Stream size                              : 2.41 GiB (80%)
Title                                    : www.club-hd.com
Writing library                          : x264 core 129 r2245 bc13772
Language                                 : Spanish
Default                                  : Yes
Forced                                   : No

Audio
ID                                       : 2
Format                                   : AC-3
Format/Info                              : Audio Coding 3
Mode extension                           : CM (complete main)
Format settings, Endianness              : Big
Codec ID                                 : A_AC3
Duration                                 : 1h 58mn
Bit rate mode                            : Constant
Bit rate                                 : 640 Kbps
Channel(s)                               : 6 channels
Channel positions                        : Front: L C R, Side: L R, LFE
Sampling rate                            : 48.0 KHz
Bit depth                                : 16 bits
Compression mode                         : Lossy
Stream size                              : 544 MiB (18%)
Title                                    : www.club-hd.com
Language                                 : Spanish
Default                                  : Yes
Forced                                   : No

Menu
00:00:00.000                             : en:There Lived a Princess
00:05:51.184                             : en:Captain Vidal
00:11:29.647                             : en:The Magic Rose
00:14:51.891                             : en:Fathers and Sons
00:18:09.379                             : en:Into the Labyrinth
00:24:51.531                             : en:Mercedes
00:31:12.328                             : en:The Giant Toad
00:38:33.269                             : en:A New, Clean Spain
00:42:56.115                             : en:Take Me to the Labyrinth
00:46:16.231                             : en:Out Daily Bread in Fanco's Spain
00:48:16.310                             : en:Lullaby
00:55:37.751                             : en:The Pale Man
01:02:35.710                             : en:The Maquis
01:07:57.531                             : en:Skirmish in the Hills
01:12:53.535                             : en:Torture
01:16:42.764                             : en:You Failed!
01:21:43.607                             : en:Magic Does Not Exist
01:25:11.981                             : en:Take Me with You
01:31:27.815                             : en:Just a Woman
01:36:26.697                             : en:Vidal's Wound
01:43:04.011                             : en:The Blood of an Innocent
01:52:18.773                             : en:End Titles










Enlaces de Mega y Fireload solo disponibles para Miembros VIP

Compra tu Membresía VIP y apoya a Club-HD!

ATENCIÓN! Tenemos TODO el material de Club-HD disponible por Mega y Fireload, enlaces 100% activos y online hasta la fecha

Llévate tus cuentas Mega PRO II gratis con tu membresía VIP!
Todos los posts vivos con links de Mega y Fireload.
Todo el material de Club-HD desbloqueado y sin publicidad.

Click Aquí para más información.




Enlaces de Mega y Fireload solo disponibles para Miembros VIP

Compra tu Membresía VIP y apoya a Club-HD!

ATENCIÓN! Tenemos TODO el material de Club-HD disponible por Mega y Fireload, enlaces 100% activos y online hasta la fecha

Llévate tus cuentas Mega PRO II gratis con tu membresía VIP!
Todos los posts vivos con links de Mega y Fireload.
Todo el material de Club-HD desbloqueado y sin publicidad.

Click Aquí para más información.



Para ver este contenido oculto, debes dar click en una de las siguientes reacciones : Like Like, Love Love, Haha Haha, Wow Wow, Sad Sad, Angry Angry
 
Última edición:

DoomsDay Elite

Well-known member
Registro
5 Sep 2012
Mensajes
1.225
Reacciones
1.101
Puntos
113

Reputation:

esta super película que ya va para la colección en este mismo momento muchas gracias revolver y Desc_g_
 

DarkMaul

Member
Registro
27 Ago 2012
Mensajes
120
Reacciones
5
Puntos
18

Reputation:

siempre tuve mi duda si esta pelicula existia en latino? alguien sabe? dudo ya que esta en castellano..
aunk sea en ingles estaria bueno verla

GRACIAS POR SUBIRLA!!
 

Lcreme

Well-known member
Registro
27 Ago 2012
Mensajes
2.092
Reacciones
105
Puntos
63

Reputation:

Buen aporte, peliculas de cine independiente, en 720p solo aqui las veo hehehe sigan asi chicos gracias!
 

Usuarios Que Están Viendo Este Tema (Total: 1, Miembros: 0, Invitados: 1)

Arriba