El último Elvis (2012) 720p BDRip Audio Latino (Drama)

Maestro Revolver

Well-known member
Miembro del Staff
Administrador
Registro
9 Ago 2012
Mensajes
3.567








TÍTULO ORIGINAL: El último Elvis
AÑO: 2011
DURACIÓN: 92 min.
PAÍS: Argentina
DIRECTOR: Armando Bo II
GUIÓN: Nicolás Giacobone, Armando Bo II
REPARTO: John McInerny, Griselda Siciliani, Margarita López
PRODUCTORA: Anonymous Content / K&S Films / Rebolucion
GÉNERO: Drama | Música
: http://www.imdb.com/title/tt2125500/

PREMIOS: 2012: Festival de Sundance: Sección oficial a concurso largometrajes internacionales
2012: Festival de San Sebastián (Sección Horizontes Latinos): Mejor película






Carlos Gutiérrez, "Elvis", es un cantante separado que vive en un olvidado barrio de Buenos Aires y que tiene una pequeña hija llamada Lisa Marie, a la que no ve muy seguido. Siempre vivió su vida como si fuese la reencarnación de Elvis Presley, negándose a aceptar su realidad. Pero está a punto de cumplir los años que su ídolo tenía al morir y su futuro se muestra vacío. Una situación inesperada lo obliga a hacerse cargo de su hija. En esos días, Carlos logra conocerse como padre y Lisa Marie aprende a aceptarlo tal cual es. Pero el destino le presenta una decisión difícil. En un viaje de locura y música, Carlos deberá elegir entre su sueño de ser Elvis o su familia.
























La pelicula NO tiene ninguna marca... solo colocamos el nombre de esta web en las capturas






Código:
General
Format                                   : Matroska
Format version                           : Version 2
File size                                : 3.80 GiB
Duration                                 : 1h 31mn
Overall bit rate                         : 5 944 Kbps
Movie name                               : www.club-hd.com
Encoded date                             : UTC 2013-08-14 23:56:41
Writing application                      : mkvmerge v5.7.0 ('The Whirlwind') built on Jul  8 2012 20:08:51
Writing library                          : libebml v1.2.3 + libmatroska v1.3.0

Video
ID                                       : 1
Format                                   : AVC
Format/Info                              : Advanced Video Codec
Format profile                           : High@L4.1
Format settings, CABAC                   : Yes
Format settings, ReFrames                : 5 frames
Codec ID                                 : V_MPEG4/ISO/AVC
Duration                                 : 1h 31mn
Bit rate                                 : 5 321 Kbps
Width                                    : 1 280 pixels
Height                                   : 558 pixels
Display aspect ratio                     : 2.25:1
Frame rate mode                          : Constant
Frame rate                               : 23.976 fps
Color space                              : YUV
Chroma subsampling                       : 4:2:0
Bit depth                                : 8 bits
Scan type                                : Progressive
Bits/(Pixel*Frame)                       : 0.311
Stream size                              : 3.31 GiB (87%)
Title                                    : www.club-hd.com
Writing library                          : x264 core 130 r2273 b3065e6
Language                                 : English
Default                                  : Yes
Forced                                   : No

Audio
ID                                       : 2
Format                                   : AC-3
Format/Info                              : Audio Coding 3
Mode extension                           : CM (complete main)
Format settings, Endianness              : Big
Codec ID                                 : A_AC3
Duration                                 : 1h 31mn
Bit rate mode                            : Constant
Bit rate                                 : 640 Kbps
Channel(s)                               : 6 channels
Channel positions                        : Front: L C R, Side: L R, LFE
Sampling rate                            : 48.0 KHz
Bit depth                                : 16 bits
Compression mode                         : Lossy
Stream size                              : 419 MiB (11%)
Title                                    : www.club-hd.com
Language                                 : Spanish
Default                                  : Yes
Forced                                   : No

Menu
00:00:00.000                             : en:00:00:00.000
00:09:03.626                             : en:00:09:03.626
00:20:22.388                             : en:00:20:22.388
00:28:20.324                             : en:00:28:20.324
00:39:45.842                             : en:00:39:45.842
00:47:55.664                             : en:00:47:55.664
00:57:29.029                             : en:00:57:29.029
01:06:49.255                             : en:01:06:49.255
01:15:35.030                             : en:01:15:35.030
01:23:14.406                             : en:01:23:14.406








Enlaces de Mega y Google Drive solo disponibles para Miembros VIP

Compra tu Membresía VIP y apoya a Club-HD!

ATENCIÓN! Tenemos TODO el material de Club-HD disponible por Mega y Google Drive, enlaces 100% activos y online hasta la fecha

Llévate tus cuentas Mega PRO III gratis con tu membresía VIP!
Todos los posts vivos con links de Mega y Google Drive.
Todo el material de Club-HD desbloqueado y sin publicidad.

Click Aquí para más información.


Para ver este contenido oculto, debes dar click en una de las siguientes reacciones : Like Like, Love Love, Haha Haha, Wow Wow, Sad Sad, Angry Angry



 
Última edición por un moderador:

metalfer77

Well-known member
Registro
27 Ago 2012
Mensajes
1.238
Edad
44
Ubicación
Puerto Deseado
Nooooo ! ! ! que grandeee!! justo el finde pasado pensé en esta película y me quejaba porque todavía no la había podido conseguir....Desc_g_:dplgar::dplgar:
 

Usuarios Que Están Viendo Este Tema (Total: 1, Miembros: 0, Invitados: 1)

Quién Leyó Este Tema (Total Miembros: 4)

Arriba