Elysium (2013) 720p BDRip Audio Inglés [Subt. Esp] (Ciencia ficción. Acción)

Maestro Revolver

Well-known member
Miembro del Staff
Administrador
Registro
9 Ago 2012
Mensajes
3.567








TÍTULO ORIGINAL: Elysium
AÑO: 2013
DURACIÓN: 109 min.
PAÍS: USA
DIRECTOR: Neill Blomkamp
GUIÓN: Neill Blomkamp
REPARTO: Matt Damon, Jodie Foster, Sharlto Copley, Alice Braga, William Fichtner, Diego Luna, Wagner Moura, Talisa Soto, Ona Grauer, Terry Chen, Adrian Holmes
PRODUCTORA: Columbia Pictures / Media Rights Capital / QED International / Sony Pictures Entertainment (SPE)
GÉNERO: Ciencia ficción. Acción
: http://www.imdb.com/title/tt1535108/






En el año 2159, los seres humanos se dividen en dos grupos: los ricos, que viven en la estación espacial Elysium, y todos los demás, que sobreviven como pueden en una Tierra devastada y superpoblada. Rhodes (Jodie Foster), una dura gobernante, promueve una rígida ley antimigración, cuyo objetivo es preservar el lujoso estilo de vida de los ciudadanos de la estación espacial. A pesar de ello, los habitantes de la Tierra harán todo lo posible por emigrar a Elysium. Max (Matt Damon) acepta una misión casi utópica, pero que, si tuviera éxito, significaría la conquista de la igualdad entre las personas de esos dos mundos tan opuestos.
























La pelicula NO tiene ninguna marca... solo colocamos el nombre de esta web en las capturas






Código:
General
Format                                   : Matroska
Format version                           : Version 2
File size                                : 2.78 GiB
Duration                                 : 1h 49mn
Overall bit rate                         : 3 640 Kbps
Movie name                               : www.club-hd.com
Encoded date                             : UTC 2013-11-21 21:49:00
Writing application                      : mkvmerge v5.7.0 ('The Whirlwind') built on Jul  8 2012 20:08:51
Writing library                          : libebml v1.2.3 + libmatroska v1.3.0

Video
ID                                       : 1
Format                                   : AVC
Format/Info                              : Advanced Video Codec
Format profile                           : High@L3.1
Format settings, CABAC                   : Yes
Format settings, ReFrames                : 5 frames
Codec ID                                 : V_MPEG4/ISO/AVC
Duration                                 : 1h 49mn
Bit rate                                 : 2 999 Kbps
Width                                    : 1 280 pixels
Height                                   : 534 pixels
Display aspect ratio                     : 2.40:1
Frame rate mode                          : Constant
Frame rate                               : 23.976 fps
Color space                              : YUV
Chroma subsampling                       : 4:2:0
Bit depth                                : 8 bits
Scan type                                : Progressive
Bits/(Pixel*Frame)                       : 0.183
Stream size                              : 2.24 GiB (80%)
Title                                    : www.club-hd.com
Writing library                          : x264 core 133 r2334 a3ac64b
Language                                 : English
Default                                  : Yes
Forced                                   : No

Audio
ID                                       : 2
Format                                   : AC-3
Format/Info                              : Audio Coding 3
Mode extension                           : CM (complete main)
Format settings, Endianness              : Big
Codec ID                                 : A_AC3
Duration                                 : 1h 49mn
Bit rate mode                            : Constant
Bit rate                                 : 640 Kbps
Channel(s)                               : 6 channels
Channel positions                        : Front: L C R, Side: L R, LFE
Sampling rate                            : 48.0 KHz
Bit depth                                : 16 bits
Compression mode                         : Lossy
Stream size                              : 501 MiB (18%)
Title                                    : www.club-hd.com
Language                                 : English
Default                                  : Yes
Forced                                   : No

Text
ID                                       : 3
Format                                   : UTF-8
Codec ID                                 : S_TEXT/UTF8
Codec ID/Info                            : UTF-8 Plain Text
Title                                    : www.club-hd.com
Language                                 : Spanish
Default                                  : Yes
Forced                                   : No

Menu
00:00:00.000                             : :Chapter 1
00:05:00.000                             : :Chapter 2
00:10:00.000                             : :Chapter 3
00:15:00.000                             : :Chapter 4
00:20:00.000                             : :Chapter 5
00:25:00.000                             : :Chapter 6
00:30:00.000                             : :Chapter 7
00:35:00.000                             : :Chapter 8
00:40:00.000                             : :Chapter 9
00:45:00.000                             : :Chapter 10
00:50:00.000                             : :Chapter 11
00:55:00.000                             : :Chapter 12
01:00:00.000                             : :Chapter 13
01:05:00.000                             : :Chapter 14
01:10:00.000                             : :Chapter 15
01:15:00.000                             : :Chapter 16
01:20:00.000                             : :Chapter 17
01:25:00.000                             : :Chapter 18
01:30:00.000                             : :Chapter 19
01:35:00.000                             : :Chapter 20
01:40:00.000                             : :Chapter 21
01:45:00.000                             : :Chapter 22




Sin Contraseña | Simple Extracción








Para ver este contenido oculto, debes dar click en una de las siguientes reacciones : Like Like, Love Love, Haha Haha, Wow Wow, Sad Sad, Angry Angry


Para ver este contenido oculto, debes dar click en una de las siguientes reacciones : Like Like, Love Love, Haha Haha, Wow Wow, Sad Sad, Angry Angry


Para ver este contenido oculto, debes dar click en una de las siguientes reacciones : Like Like, Love Love, Haha Haha, Wow Wow, Sad Sad, Angry Angry


Para ver este contenido oculto, debes dar click en una de las siguientes reacciones : Like Like, Love Love, Haha Haha, Wow Wow, Sad Sad, Angry Angry



 
Última edición:

Leo-Peru

Well-known member
Registro
27 Ago 2012
Mensajes
1.487
Ubicación
Lima
:OHHH: Gracias Revolver22 :LXR: , esta película de ciencia ficción es buena :D esperaré en dual para guardarmela en la colección :dplgar:
 

Usuarios Que Están Viendo Este Tema (Total: 1, Miembros: 0, Invitados: 1)

Quién Leyó Este Tema (Total Miembros: 1)

Arriba