• Este aviso va dirigido a todos los nuevos miembros recien llegados a Club-HD. Les recordamos que la direccion URL de este sitio web es , asi que deben acceder únicamente por esta URL. Sean todos bienvenidos al Club!

Emma. (2020) 1080p BDRip Dual Latino-Inglés [Subt. Esp] (Comedia. Romance)

Dante Inferno

🔥Dante Inferno🔥
Miembro del Staff
Moderador
Uploader
Registrado
24 May 2016
Mensajes
580
Puntos de reacción
11,263
Puntos
93
Ubicación
Argentina
Sitio web
club-hd.com



SINOPSIS

Guapa, inteligente y rica, la joven Emma Woodhouse es una reina sin rival en su pequeño pueblo. Nueva adaptación de la novela de Jane Austen publicada en 1815 sobre la vida de la joven Emma. El guion corre a cargo de la novelista ganadora del Premio Booker Eleanor Catton, que en el año 2013 se convirtió en la más joven en recibir el prestigioso galardón. (FILMAFFINITY)

MÁS INFORMACIÓN




TRAILER



CAPTURAS






MEDIAINFO

Código:
General
Complete name                            : Emma. (2020) 1080p BDRip Dual Latino-Inglés [Subt. Esp].mkv
Format                                   : Matroska
Format version                           : Version 4
File size                                : 13.7 GiB
Duration                                 : 2 h 4 min
Overall bit rate mode                    : Variable
Overall bit rate                         : 15.8 Mb/s
Movie name                               : Emma. (2020) 1080p BDRip Dual Latino-Inglés [Subt. Esp] [www.club-hd.com]
Encoded date                             : UTC 2020-06-22 21:28:38
Writing application                      : mkvmerge v27.0.0 ('Metropolis') 64-bit
Writing library                          : libebml v1.3.6 + libmatroska v1.4.9

Video
ID                                       : 1
Format                                   : AVC
Format/Info                              : Advanced Video Codec
Format profile                           : High@L4.1
Format settings                          : CABAC / 4 Ref Frames
Format settings, CABAC                   : Yes
Format settings, Reference frames        : 4 frames
Codec ID                                 : V_MPEG4/ISO/AVC
Duration                                 : 2 h 4 min
Bit rate                                 : 11.0 Mb/s
Width                                    : 1 920 pixels
Height                                   : 1 080 pixels
Display aspect ratio                     : 16:9
Frame rate mode                          : Constant
Frame rate                               : 23.976 (24000/1001) FPS
Color space                              : YUV
Chroma subsampling                       : 4:2:0
Bit depth                                : 8 bits
Scan type                                : Progressive
Bits/(Pixel*Frame)                       : 0.221
Stream size                              : 9.55 GiB (70%)
Title                                    : Emma. (2020) 1080p BDRip Dual Latino-Inglés [Subt. Esp]
Writing library                          : x264 core 160 r3000 33f9e14
Language                                 : English
Default                                  : Yes
Forced                                   : No

Audio #1
ID                                       : 2
Format                                   : AC-3
Format/Info                              : Audio Coding 3
Commercial name                          : Dolby Digital
Codec ID                                 : A_AC3
Duration                                 : 2 h 4 min
Bit rate mode                            : Constant
Bit rate                                 : 640 kb/s
Channel(s)                               : 6 channels
Channel layout                           : L R C LFE Ls Rs
Sampling rate                            : 48.0 kHz
Frame rate                               : 31.250 FPS (1536 SPF)
Compression mode                         : Lossy
Stream size                              : 569 MiB (4%)
Title                                    : Español Latino
Language                                 : Spanish
Service kind                             : Complete Main
Default                                  : Yes
Forced                                   : No

Audio #2
ID                                       : 3
Format                                   : DTS
Format/Info                              : Digital Theater Systems
Codec ID                                 : A_DTS
Duration                                 : 2 h 4 min
Bit rate mode                            : Constant
Bit rate                                 : 768 kb/s
Channel(s)                               : 6 channels
Channel layout                           : C L R Ls Rs LFE
Sampling rate                            : 48.0 kHz
Frame rate                               : 93.750 FPS (512 SPF)
Bit depth                                : 24 bits
Compression mode                         : Lossy
Delay relative to video                  : 9 ms
Stream size                              : 683 MiB (5%)
Title                                    : Español Latino
Language                                 : Spanish
Default                                  : No
Forced                                   : No

Audio #3
ID                                       : 4
Format                                   : DTS XLL
Format/Info                              : Digital Theater Systems
Commercial name                          : DTS-HD Master Audio
Codec ID                                 : A_DTS
Duration                                 : 2 h 4 min
Bit rate mode                            : Variable
Bit rate                                 : 3 395 kb/s
Channel(s)                               : 6 channels
Channel layout                           : C L R Ls Rs LFE
Sampling rate                            : 48.0 kHz
Frame rate                               : 93.750 FPS (512 SPF)
Bit depth                                : 24 bits
Compression mode                         : Lossless
Stream size                              : 2.95 GiB (21%)
Title                                    : Inglés
Language                                 : English
Default                                  : No
Forced                                   : No

Text
ID                                       : 5
Format                                   : UTF-8
Codec ID                                 : S_TEXT/UTF8
Codec ID/Info                            : UTF-8 Plain Text
Duration                                 : 1 h 57 min
Bit rate                                 : 62 b/s
Count of elements                        : 1597
Stream size                              : 53.5 KiB (0%)
Title                                    : Subtítulos Español
Language                                 : Spanish
Default                                  : No
Forced                                   : No

Menu
00:00:00.000                             : en:Chapter 01
00:07:32.827                             : en:Chapter 02
00:11:26.311                             : en:Chapter 03
00:16:21.564                             : en:Chapter 04
00:21:52.603                             : en:Chapter 05
00:25:30.988                             : en:Chapter 06
00:31:46.613                             : en:Chapter 07
00:35:59.657                             : en:Chapter 08
00:44:14.277                             : en:Chapter 09
00:47:31.724                             : en:Chapter 10
00:56:16.790                             : en:Chapter 11
01:00:16.321                             : en:Chapter 12
01:05:16.329                             : en:Chapter 13
01:09:28.289                             : en:Chapter 14
01:18:26.535                             : en:Chapter 15
01:25:05.058                             : en:Chapter 16
01:35:06.659                             : en:Chapter 17
01:43:40.965                             : en:Chapter 18
01:55:16.576                             : en:Chapter 19
01:57:23.036                             : en:Chapter 20

Un agradecimiento muy especial a nuestro amigo jona28 por brindarnos este audio Latino de excelente calidad.

Descarga sólo el audio Latino de este aporte, aquí.



Subtítulos trabajados desde el original,
acomodados diálogos que no se alcanzaban a leer.

Edición por Clasaase. Descargarlos aquí

CONTRASEÑA




DESCARGAR

Todos los links son Intercambiables




Enlaces de Mega y Google Drive solo disponibles para Miembros VIP

Compra tu Membresía VIP y apoya a Club-HD!

ATENCIÓN! Tenemos TODO el material de Club-HD disponible por Mega y Google Drive, enlaces 100% activos y online hasta la fecha

Llévate tus cuentas Mega PRO II gratis con tu membresía VIP!
Todos los posts vivos con links de Mega y Google Drive.
Todo el material de Club-HD desbloqueado y sin publicidad.

Click Aquí para más información.



Enlaces de Mega y Google Drive solo disponibles para Miembros VIP

Compra tu Membresía VIP y apoya a Club-HD!

ATENCIÓN! Tenemos TODO el material de Club-HD disponible por Mega y Google Drive, enlaces 100% activos y online hasta la fecha

Llévate tus cuentas Mega PRO II gratis con tu membresía VIP!
Todos los posts vivos con links de Mega y Google Drive.
Todo el material de Club-HD desbloqueado y sin publicidad.

Click Aquí para más información.



Para ver este contenido oculto, debes dar click en una de las siguientes reacciones: Like Like, Love Love, Haha Haha, Wow Wow, Sad Sad, Angry Angry



Para ver este contenido oculto, debes dar click en una de las siguientes reacciones: Like Like, Love Love, Haha Haha, Wow Wow, Sad Sad, Angry Angry



Para ver este contenido oculto, debes dar click en una de las siguientes reacciones: Like Like, Love Love, Haha Haha, Wow Wow, Sad Sad, Angry Angry



Para ver este contenido oculto, debes dar click en una de las siguientes reacciones: Like Like, Love Love, Haha Haha, Wow Wow, Sad Sad, Angry Angry
 
Última edición por un moderador:

cripp

Well-known member
Registrado
27 Ago 2012
Mensajes
8,059
Puntos de reacción
459
Puntos
113
Gracias por compartir
 

rayspartano

Member
Registrado
17 Nov 2012
Mensajes
351
Puntos de reacción
22
Puntos
18
Muchas gracias Club-HD, no sabia que habia pelicula basada en ese personaje de Phineas y Ferb. Disney no sabe que inventar
 

galiel38

Active member
Registrado
28 Sep 2012
Mensajes
682
Puntos de reacción
78
Puntos
28
Edad
32
Muchas gracias por la película.
 

ERRE

Well-known member
Registrado
28 Ago 2012
Mensajes
2,205
Puntos de reacción
163
Puntos
63
Gracias... 😄
 

Usuarios Que Están Viendo Este Tema (Total: 1, Miembros: 0, Invitados: 1)

Arriba