End Of Watch (2012) m-720p BDRip Audio Inglés [Subt. Esp] (Thriller)

Max

Admin
Miembro del Staff
Administrador
Registro
8 Ago 2012
Mensajes
5.587
Reacciones
23.753
Puntos
113
Ubicación
Disco C

Reputation:





TÍTULO ORIGINAL: End of Watch
AÑO: 2012
DURACIÓN: 109 min.
PAÍS: Estados Unidos
DIRECTOR: David Ayer
GUIÓN: David Ayer
MÚSICA: David Sardy
FOTOGRAFÍA: Roman Vasyanov
REPARTO: Jake Gyllenhaal, Michael Peña, Anna Kendrick, Frank Grillo, America Ferrera, Natalie Martinez, Cody Horn, David Harbour
PRODUCTORA: Open Road Films / 5150 Action / Crave Films / Exclusive Media Group / Emmett/Furla Films
GÉNERO: Thriller. Drama | Policíaco. Drogas

http://www.imdb.com/title/tt1855199/






Los agentes Taylor (Jake Gyllenhaal) y Zavala (Michael Peña) son dos policías de Los Angeles que patrullan las calles y que tendrán que superar su mayor reto cuando se convierten en el objetivo de una peligrosa banda de narcotraficantes que han puesto precio a su cabeza.





























Código:
General
Complete name                            : End Of Watch (2012) m-720p BDRip Audio Inglés [Subt. Esp].mkv
Format                                   : Matroska
Format version                           : Version 2
File size                                : 2.50 GiB
Duration                                 : 1h 48mn
Overall bit rate                         : 3 295 Kbps
Movie name                               : www.club-hd.com --> End Of Watch (2012) m-720p BDRip Audio Inglés [Subt. Esp]
Encoded date                             : UTC 2012-11-26 12:23:58
Writing application                      : mkvmerge v5.8.0 ('No Sleep / Pillow') built on Sep  2 2012 15:37:04
Writing library                          : libebml v1.2.3 + libmatroska v1.3.0

Video
ID                                       : 1
Format                                   : AVC
Format/Info                              : Advanced Video Codec
Format profile                           : High@L4.1
Format settings, CABAC                   : Yes
Format settings, ReFrames                : 9 frames
Codec ID                                 : V_MPEG4/ISO/AVC
Duration                                 : 1h 48mn
Bit rate                                 : 2 661 Kbps
Width                                    : 1 280 pixels
Height                                   : 720 pixels
Display aspect ratio                     : 16:9
Frame rate mode                          : Constant
Frame rate                               : 24.000 fps
Color space                              : YUV
Chroma subsampling                       : 4:2:0
Bit depth                                : 8 bits
Scan type                                : Progressive
Bits/(Pixel*Frame)                       : 0.120
Stream size                              : 1.96 GiB (79%)
Title                                    : www.club-hd.com --> End Of Watch (2012) m-720p BDRip Audio Inglés [Subt. Esp]
Writing library                          : x264 core 129 r2230 1cffe9f
Encoding settings                        : cabac=1 / ref=9 / deblock=1:-2:-2 / analyse=0x3:0x113 / me=umh / subme=10 / psy=1 / psy_rd=1.00:0.00 / mixed_ref=1 / me_range=16 / chroma_me=1 / trellis=2 / 8x8dct=1 / cqm=0 / deadzone=21,11 / fast_pskip=1 / chroma_qp_offset=-2 / threads=48 / lookahead_threads=8 / sliced_threads=0 / nr=0 / decimate=1 / interlaced=0 / bluray_compat=0 / constrained_intra=0 / bframes=3 / b_pyramid=2 / b_adapt=1 / b_bias=0 / direct=1 / weightb=1 / open_gop=0 / weightp=2 / keyint=250 / keyint_min=24 / scenecut=40 / intra_refresh=0 / rc=2pass / mbtree=0 / bitrate=2661 / ratetol=1.0 / qcomp=0.60 / qpmin=0 / qpmax=69 / qpstep=4 / cplxblur=20.0 / qblur=0.5 / ip_ratio=1.40 / pb_ratio=1.30 / aq=1:0.80
Language                                 : English
Default                                  : Yes
Forced                                   : No

Audio
ID                                       : 2
Format                                   : AC-3
Format/Info                              : Audio Coding 3
Mode extension                           : CM (complete main)
Format settings, Endianness              : Big
Codec ID                                 : A_AC3
Duration                                 : 1h 48mn
Bit rate mode                            : Constant
Bit rate                                 : 640 Kbps
Channel(s)                               : 6 channels
Channel positions                        : Front: L C R, Side: L R, LFE
Sampling rate                            : 48.0 KHz
Bit depth                                : 16 bits
Compression mode                         : Lossy
Stream size                              : 497 MiB (19%)
Title                                    : End Of Watch (2012) - Inglés AC3 5.1
Language                                 : English
Default                                  : Yes
Forced                                   : No

Text
ID                                       : 3
Format                                   : UTF-8
Codec ID                                 : S_TEXT/UTF8
Codec ID/Info                            : UTF-8 Plain Text
Title                                    : Subtítulos Español
Language                                 : Spanish
Default                                  : Yes
Forced                                   : No

Menu
00:00:00.000                             : en:Chapter 1
00:03:15.042                             : en:Chapter 2
00:10:19.750                             : en:Chapter 3
00:16:57.333                             : en:Chapter 4
00:24:11.708                             : en:Chapter 5
00:31:45.125                             : en:Chapter 6
00:35:55.292                             : en:Chapter 7
00:42:17.625                             : en:Chapter 8
00:49:03.583                             : en:Chapter 9
00:55:37.792                             : en:Chapter 10
00:59:27.750                             : en:Chapter 11
01:04:02.625                             : en:Chapter 12
01:11:00.958                             : en:Chapter 13
01:17:28.875                             : en:Chapter 14
01:23:02.875                             : en:Chapter 15
01:30:03.042                             : en:Chapter 16
01:35:19.250                             : en:Chapter 17
01:39:05.833                             : en:Chapter 18







Todos los links son Intercambiables!





Enlaces de Mega y Fireload solo disponibles para Miembros VIP

Compra tu Membresía VIP y apoya a Club-HD!

ATENCIÓN! Tenemos TODO el material de Club-HD disponible por Mega y Fireload, enlaces 100% activos y online hasta la fecha

Llévate tus cuentas Mega PRO II gratis con tu membresía VIP!
Todos los posts vivos con links de Mega y Fireload.
Todo el material de Club-HD desbloqueado y sin publicidad.

Click Aquí para más información.





Enlaces de Mega y Fireload solo disponibles para Miembros VIP

Compra tu Membresía VIP y apoya a Club-HD!

ATENCIÓN! Tenemos TODO el material de Club-HD disponible por Mega y Fireload, enlaces 100% activos y online hasta la fecha

Llévate tus cuentas Mega PRO II gratis con tu membresía VIP!
Todos los posts vivos con links de Mega y Fireload.
Todo el material de Club-HD desbloqueado y sin publicidad.

Click Aquí para más información.





Para ver este contenido oculto, debes dar click en una de las siguientes reacciones : Like Like, Love Love, Haha Haha, Wow Wow, Sad Sad, Angry Angry
 
Última edición por un moderador:

Dany

New member
Registro
28 Ago 2012
Mensajes
395
Reacciones
10
Puntos
0
Edad
43

Reputation:

Duonlodin..!! Tanquiu veri mucho..!!
 

JGCH

New member
Registro
27 Ago 2012
Mensajes
43
Reacciones
0
Puntos
0
Edad
37

Reputation:

Vi los avances y debe estar muy buena
 

Usuarios Que Están Viendo Este Tema (Total: 1, Miembros: 0, Invitados: 1)

Arriba