Escape From The Planet of The Apes (1971) 720p BDRip Dual Latino-Inglés [Subt. Esp] (Ciencia ficción. Fantástico)

Maestro Revolver

Well-known member
Miembro del Staff
Administrador
Registro
9 Ago 2012
Mensajes
3.567








TÍTULO ORIGINAL: Escape From The Planet of The Apes
AÑO: 1971
DURACIÓN: 118 min.
PAÍS: USA
DIRECTOR: Don Taylor
GUIÓN: Paul Dehn
REPARTO: Roddy McDowall, Kim Hunter, Bradford Dillman, Ricardo Montalbán, Natalie Trundy, Sal Mineo, Albert Salmi, M. Emmet Walsh
PRODUCTORA: 20th Century Fox
GÉNERO: Ciencia ficción. Fantástico. Aventuras | Secuela. Simios. Futuro postapocalíptico
: http://www.imdb.com/title/tt0067065/






Tres simios, la doctora Zira, Cornelius y el doctor Milo, han conseguido sobrevivir al desastre nuclear que ha destruido su planeta y, tras reparar la nave de los seres humanos, viajan a través del tiempo hasta aterrizar en la Tierra a finales del siglo XX. Mientras son objeto de estudio en un centro de investigación para determinar su nivel de inteligencia, se niegan a revelar sus conocimientos sobre la civilización humana.
























La pelicula NO tiene ninguna marca... solo colocamos el nombre de esta web en las capturas






Código:
General
Format                                   : Matroska
Format version                           : Version 2
File size                                : 2.39 GiB
Duration                                 : 1h 37mn
Overall bit rate                         : 3 510 Kbps
Movie name                               : www.club-hd.com
Encoded date                             : UTC 2013-11-19 23:59:20
Writing application                      : mkvmerge v5.7.0 ('The Whirlwind') built on Jul  8 2012 20:08:51
Writing library                          : libebml v1.2.3 + libmatroska v1.3.0

Video
ID                                       : 1
Format                                   : AVC
Format/Info                              : Advanced Video Codec
Format profile                           : High@L4.1
Format settings, CABAC                   : Yes
Format settings, ReFrames                : 9 frames
Codec ID                                 : V_MPEG4/ISO/AVC
Duration                                 : 1h 37mn
Bit rate                                 : 2 740 Kbps
Width                                    : 1 280 pixels
Height                                   : 542 pixels
Display aspect ratio                     : 2.35:1
Frame rate mode                          : Constant
Frame rate                               : 23.976 fps
Color space                              : YUV
Chroma subsampling                       : 4:2:0
Bit depth                                : 8 bits
Scan type                                : Progressive
Bits/(Pixel*Frame)                       : 0.165
Stream size                              : 1.82 GiB (76%)
Title                                    : www.club-hd.com
Writing library                          : x264 core 130 r2273 b3065e6
Language                                 : English
Default                                  : Yes
Forced                                   : No

Audio #1
ID                                       : 2
Format                                   : AC-3
Format/Info                              : Audio Coding 3
Mode extension                           : CM (complete main)
Format settings, Endianness              : Big
Codec ID                                 : A_AC3
Duration                                 : 1h 37mn
Bit rate mode                            : Constant
Bit rate                                 : 128 Kbps
Channel(s)                               : 2 channels
Channel positions                        : Front: L R
Sampling rate                            : 48.0 KHz
Bit depth                                : 16 bits
Compression mode                         : Lossy
Stream size                              : 89.3 MiB (4%)
Title                                    : www.club-hd.com  >>  Latino
Language                                 : Spanish
Default                                  : Yes
Forced                                   : No

Audio #2
ID                                       : 3
Format                                   : AC-3
Format/Info                              : Audio Coding 3
Mode extension                           : CM (complete main)
Format settings, Endianness              : Big
Codec ID                                 : A_AC3
Duration                                 : 1h 37mn
Bit rate mode                            : Constant
Bit rate                                 : 640 Kbps
Channel(s)                               : 6 channels
Channel positions                        : Front: L C R, Side: L R, LFE
Sampling rate                            : 48.0 KHz
Bit depth                                : 16 bits
Compression mode                         : Lossy
Stream size                              : 447 MiB (18%)
Title                                    : www.club-hd.com  >>  Inglés
Language                                 : English
Default                                  : No
Forced                                   : No

Text
ID                                       : 4
Format                                   : UTF-8
Codec ID                                 : S_TEXT/UTF8
Codec ID/Info                            : UTF-8 Plain Text
Language                                 : Spanish
Default                                  : No
Forced                                   : No

Menu
00:00:00.000                             : en:Pickup and Recovery
00:04:15.505                             : en:Main Titles
00:07:19.689                             : en:Playing Dumb
00:11:50.543                             : en:Drs. Dixon & Branton
00:15:24.799                             : en:"I Loathe Bananas"
00:17:33.511                             : en:Introductions
00:20:12.086                             : en:In the News
00:22:22.967                             : en:The Presidential Inquiry
00:32:07.259                             : en:Hasslein's Theory
00:35:44.934                             : en:Toast of the Town
00:41:52.969                             : en:Zira's Delicate Condition
00:45:33.522                             : en:Hasslein's Fear
00:50:14.428                             : en:How it All Started
00:55:31.203                             : en:Sodium Pentothal
01:01:06.746                             : en:The Commission
01:03:07.784                             : en:Boiling Point
01:05:39.060                             : en:On the Run
01:10:17.296                             : en:Stevie's Idea
01:12:24.590                             : en:Armando's Circus
01:15:43.789                             : en:Time to Go
01:19:14.166                             : en:Saying Goodbye
01:23:24.708                             : en:The Oil Field
01:26:04.993                             : en:In Hasslein's Sights
01:27:35.500                             : en:Aboard the Derelict
01:31:09.547                             : en:Confrontation
01:36:02.757                             : en:Simian Survival
01:36:49.804                             : en:End Titles








Enlaces de Mega y Google Drive solo disponibles para Miembros VIP

Compra tu Membresía VIP y apoya a Club-HD!

ATENCIÓN! Tenemos TODO el material de Club-HD disponible por Mega y Google Drive, enlaces 100% activos y online hasta la fecha

Llévate tus cuentas Mega PRO III gratis con tu membresía VIP!
Todos los posts vivos con links de Mega y Google Drive.
Todo el material de Club-HD desbloqueado y sin publicidad.

Click Aquí para más información.



Para ver este contenido oculto, debes dar click en una de las siguientes reacciones : Like Like, Love Love, Haha Haha, Wow Wow, Sad Sad, Angry Angry

 
Última edición por un moderador:

Usuarios Que Están Viendo Este Tema (Total: 1, Miembros: 0, Invitados: 1)

Quién Leyó Este Tema (Total Miembros: 3)

Arriba