Eternal Sunshine of the Spotless Mind (2004) m-720p BDRip Dual Latino-Inglés [Subt. Esp] (Fantástico)

Maestro Revolver

Well-known member
Miembro del Staff
Administrador
Registro
9 Ago 2012
Mensajes
3.567








TÍTULO ORIGINAL: Eternal Sunshine of the Spotless Mind
AÑO: 2004
DURACIÓN: 108 min.
PAÍS: USA
DIRECTOR: Michel Gondry
GUIÓN: Charlie Kaufman (Historia: Charlie Kaufman, Michel Gondry, Pierre Bismuth)
REPARTO: Jim Carrey, Kate Winslet, Kirsten Dunst, Mark Ruffalo, Elijah Wood, Tom Wilkinson, Thomas Jay Ryan, Gerry Robert Byrne, Jane Adams, David Cross, Ryan Whitney
PRODUCTORA: Focus Features
GÉNERO: Fantástico. Comedia. Drama. Romance | Cine independiente USA. Comedia dramática
: http://www.imdb.com/title/tt0338013/

Premios: 2004: Oscar: Mejor guión original. 2 nominaciones
2004: Globo de Oro: 4 nominaciones, incluyendo mejor película comedia o musical
2004: 2 Premios BAFTA: Mejor montaje y guión original. 6 nominaciones
2004: Nominada al Cesar: Mejor película extranjera
2004: National Board of Review: Mejor guión original (Charlie Kaufman)
2004: Asociación de Críticos de Los Angeles: Finalista a mejor guión
2004: Toronto: Mejor director (Michel Gondry), guión original
2004: American Film Institute (AFI): Top 10 - Mejores películas del año
2004: 3 nominaciones Critics' Choice Awards: Mejor película, actriz y guión.





Joel (Jim Carrey) recibe un terrible golpe cuando descubre que su novia Clementine (Kate Winslet) ha hecho que borren de su memoria todos los recuerdos de su tormentosa relación. Desesperado, se pone en contacto con el creador del proceso, el Dr. Howard Mierzwiak, para que borre a Clementine de su memoria. Pero cuando los recuerdos de Joel empiezan a desaparecer de pronto redescubre su amor por Clementine. Desde lo más profundo de su cerebro intentará parar el proceso.
























La pelicula NO tiene ninguna marca... solo colocamos el nombre de esta web en las capturas






Código:
General
Format                                   : Matroska
Format version                           : Version 2
File size                                : 2.64 GiB
Duration                                 : 1h 47mn
Overall bit rate                         : 3 513 Kbps
Movie name                               : www.club-hd.com
Encoded date                             : UTC 2013-09-12 16:13:17
Writing application                      : mkvmerge v5.7.0 ('The Whirlwind') built on Jul  8 2012 20:08:51
Writing library                          : libebml v1.2.3 + libmatroska v1.3.0

Video
ID                                       : 1
Format                                   : AVC
Format/Info                              : Advanced Video Codec
Format profile                           : High@L4.1
Format settings, CABAC                   : Yes
Format settings, ReFrames                : 9 frames
Codec ID                                 : V_MPEG4/ISO/AVC
Duration                                 : 1h 47mn
Bit rate                                 : 2 745 Kbps
Width                                    : 1 280 pixels
Height                                   : 694 pixels
Display aspect ratio                     : 1.85:1
Frame rate mode                          : Constant
Frame rate                               : 23.976 fps
Color space                              : YUV
Chroma subsampling                       : 4:2:0
Bit depth                                : 8 bits
Scan type                                : Progressive
Bits/(Pixel*Frame)                       : 0.129
Stream size                              : 2.01 GiB (76%)
Title                                    : www.club-hd.com
Writing library                          : x264 core 130 r2273 b3065e6
Language                                 : English
Default                                  : Yes
Forced                                   : No

Audio #1
ID                                       : 2
Format                                   : AC-3
Format/Info                              : Audio Coding 3
Mode extension                           : CM (complete main)
Format settings, Endianness              : Big
Codec ID                                 : A_AC3
Duration                                 : 1h 47mn
Bit rate mode                            : Constant
Bit rate                                 : 320 Kbps
Channel(s)                               : 6 channels
Channel positions                        : Front: L C R, Side: L R, LFE
Sampling rate                            : 48.0 KHz
Bit depth                                : 16 bits
Compression mode                         : Lossy
Stream size                              : 246 MiB (9%)
Title                                    : www.club-hd.com >> Latino
Language                                 : Spanish
Default                                  : Yes
Forced                                   : No

Audio #2
ID                                       : 3
Format                                   : AC-3
Format/Info                              : Audio Coding 3
Mode extension                           : CM (complete main)
Format settings, Endianness              : Big
Codec ID                                 : A_AC3
Duration                                 : 1h 47mn
Bit rate mode                            : Constant
Bit rate                                 : 448 Kbps
Channel(s)                               : 6 channels
Channel positions                        : Front: L C R, Side: L R, LFE
Sampling rate                            : 48.0 KHz
Bit depth                                : 16 bits
Compression mode                         : Lossy
Stream size                              : 345 MiB (13%)
Title                                    : www.club-hd.com >> Inglés
Language                                 : English
Default                                  : No
Forced                                   : No

Text
ID                                       : 4
Format                                   : UTF-8
Codec ID                                 : S_TEXT/UTF8
Codec ID/Info                            : UTF-8 Plain Text
Language                                 : Spanish
Default                                  : No
Forced                                   : No

Menu
00:00:00.000                             : en:Valentine's Day
00:03:42.722                             : en:Clementine
00:10:30.755                             : en:Two Blue Ruins
00:13:24.845                             : en:Honeymoon on Ice
00:17:37.389                             : en:Main Titles
00:19:34.840                             : en:Erased
00:25:11.301                             : en:Lacuna Inc.
00:28:00.303                             : en:Empty Your Life...
00:35:08.064                             : en:Erasing You
00:43:06.083                             : en:Blessed Are the Forgetful
00:49:28.590                             : en:Tangerine
00:52:13.213                             : en:Wake Me Up
00:59:23.977                             : en:Baby Joel
01:02:52.727                             : en:Off the Map
01:15:49.920                             : en:The Blameless Vestal's Lot
01:21:27.799                             : en:Remember Me...
01:24:22.182                             : en:Goodbye, Joel
01:31:44.665                             : en:The Next Morning
01:35:51.746                             : en:Change Your Heart...
01:44:05.280                             : en:End Titles








Enlaces de Mega y Google Drive solo disponibles para Miembros VIP

Compra tu Membresía VIP y apoya a Club-HD!

ATENCIÓN! Tenemos TODO el material de Club-HD disponible por Mega y Google Drive, enlaces 100% activos y online hasta la fecha

Llévate tus cuentas Mega PRO III gratis con tu membresía VIP!
Todos los posts vivos con links de Mega y Google Drive.
Todo el material de Club-HD desbloqueado y sin publicidad.

Click Aquí para más información.


Enlaces de Mega y Google Drive solo disponibles para Miembros VIP

Compra tu Membresía VIP y apoya a Club-HD!

ATENCIÓN! Tenemos TODO el material de Club-HD disponible por Mega y Google Drive, enlaces 100% activos y online hasta la fecha

Llévate tus cuentas Mega PRO III gratis con tu membresía VIP!
Todos los posts vivos con links de Mega y Google Drive.
Todo el material de Club-HD desbloqueado y sin publicidad.

Click Aquí para más información.


Para ver este contenido oculto, debes dar click en una de las siguientes reacciones : Like Like, Love Love, Haha Haha, Wow Wow, Sad Sad, Angry Angry


Para ver este contenido oculto, debes dar click en una de las siguientes reacciones : Like Like, Love Love, Haha Haha, Wow Wow, Sad Sad, Angry Angry
 
Última edición por un moderador:

stone_04

New member
Registro
31 Ago 2012
Mensajes
61
Edad
30
muchas gracias me havian dicho que esra peli estaba re buena Desc_g_Tb_up3:bsrs:
 

Usuarios Que Están Viendo Este Tema (Total: 1, Miembros: 0, Invitados: 1)

Quién Leyó Este Tema (Total Miembros: 3)

Arriba