Evangelion 1.11 You Are (Not) Alone (2007) m-1080p BDRip Dual Japones-Inglés [Subt. Esp] (Animación)

Maestro Revolver

Well-known member
Miembro del Staff
Administrador
Registro
9 Ago 2012
Mensajes
3.567








TÍTULO ORIGINAL: Evangelion Shin Gekijôban: Jo (Evangelion: 1.0 You Are (Not) Alone)
AÑO: 2007
DURACIÓN: 98 min.
PAÍS: Japón
DIRECTOR: Masayuki, Kazuya Tsurumaki, Hideaki Anno
GUIÓN: Hideaki Anno
REPARTO: Animation
PRODUCTORA: Gainax / Khara Corporation
GÉNERO: Animación. Ciencia ficción. Drama. Acción | Remake. Robots
: http://www.imdb.com/title/tt0923811/






Dejando claro que Neon Genesis Evangelion es un icono indiscutible de la animación japonesa no podemos sino alegrarnos de que el gran Hideaki Anno, su creador, haya decidido ‘reconstruir’ un proyecto que se inició en 1995 como serie de televisión y que ha seguido dando que hablar durante más de una década. Este juggernaut de la ciencia ficción animada, de inacabables ramificaciones filosóficas, espirituales y humanas, regresa a la gran pantalla bajo forma de una espectacular tetralogía de la que Evangelion 1.0 es su primer capítulo. Tokyo-3 vuelve a estar bajo la amenaza de los Ángeles y Shinji y Rei volverán a enfundarse el traje de Eva. (extraído de CinemaSitges)
























La pelicula NO tiene ninguna marca... solo colocamos el nombre de esta web en las capturas






Código:
General
Format                                   : Matroska
Format version                           : Version 2
File size                                : 4.41 GiB
Duration                                 : 1h 40mn
Overall bit rate                         : 6 255 Kbps
Movie name                               : www.club-hd.com
Encoded date                             : UTC 2013-06-17 23:31:08
Writing application                      : mkvmerge v5.7.0 ('The Whirlwind') built on Jul  8 2012 20:08:51
Writing library                          : libebml v1.2.3 + libmatroska v1.3.0

Video
ID                                       : 1
Format                                   : AVC
Format/Info                              : Advanced Video Codec
Format profile                           : High@L4.1
Format settings, CABAC                   : Yes
Format settings, ReFrames                : 3 frames
Codec ID                                 : V_MPEG4/ISO/AVC
Duration                                 : 1h 40mn
Bit rate                                 : 5 000 Kbps
Width                                    : 1 920 pixels
Height                                   : 1 072 pixels
Display aspect ratio                     : 16:9
Frame rate mode                          : Constant
Frame rate                               : 23.976 fps
Color space                              : YUV
Chroma subsampling                       : 4:2:0
Bit depth                                : 8 bits
Scan type                                : Progressive
Bits/(Pixel*Frame)                       : 0.101
Stream size                              : 3.42 GiB (78%)
Title                                    : www.club-hd.com
Writing library                          : x264 core 120
Language                                 : Japanese
Default                                  : Yes
Forced                                   : No
Color primaries                          : BT.709
Transfer characteristics                 : BT.709
Matrix coefficients                      : BT.709

Audio #1
ID                                       : 2
Format                                   : AC-3
Format/Info                              : Audio Coding 3
Mode extension                           : CM (complete main)
Format settings, Endianness              : Big
Codec ID                                 : A_AC3
Duration                                 : 1h 40mn
Bit rate mode                            : Constant
Bit rate                                 : 640 Kbps
Channel(s)                               : 6 channels
Channel positions                        : Front: L C R, Side: L R, LFE
Sampling rate                            : 48.0 KHz
Bit depth                                : 16 bits
Compression mode                         : Lossy
Stream size                              : 462 MiB (10%)
Title                                    : www.club-hd.com  >>  Japonés
Language                                 : Japanese
Default                                  : Yes
Forced                                   : No

Audio #2
ID                                       : 3
Format                                   : AC-3
Format/Info                              : Audio Coding 3
Mode extension                           : CM (complete main)
Format settings, Endianness              : Big
Codec ID                                 : A_AC3
Duration                                 : 1h 40mn
Bit rate mode                            : Constant
Bit rate                                 : 640 Kbps
Channel(s)                               : 6 channels
Channel positions                        : Front: L C R, Side: L R, LFE
Sampling rate                            : 48.0 KHz
Bit depth                                : 16 bits
Compression mode                         : Lossy
Stream size                              : 462 MiB (10%)
Title                                    : www.club-hd.com  >>  Inglés
Language                                 : English
Default                                  : No
Forced                                   : No

Text
ID                                       : 4
Format                                   : UTF-8
Codec ID                                 : S_TEXT/UTF8
Codec ID/Info                            : UTF-8 Plain Text
Language                                 : Spanish
Default                                  : Yes
Forced                                   : No

Menu
00:00:00.000                             : en:Chapter 1
00:02:05.792                             : en:Chapter 2
00:10:47.396                             : en:Chapter 3
00:13:29.767                             : en:Chapter 4
00:14:27.575                             : en:Chapter 5
00:17:11.697                             : en:Chapter 6
00:19:13.861                             : en:Chapter 7
00:27:34.069                             : en:Chapter 8
00:29:43.031                             : en:Chapter 9
00:30:56.938                             : en:Chapter 10
00:35:54.318                             : en:Chapter 11
00:38:00.778                             : en:Chapter 12
00:41:24.732                             : en:Chapter 13
00:42:41.725                             : en:Chapter 14
00:44:35.464                             : en:Chapter 15
00:48:57.267                             : en:Chapter 16
00:52:14.965                             : en:Chapter 17
00:53:11.521                             : en:Chapter 18
00:55:19.065                             : en:Chapter 19
00:56:38.770                             : en:Chapter 20
01:01:43.324                             : en:Chapter 21
01:03:15.291                             : en:Chapter 22
01:07:15.990                             : en:Chapter 23
01:08:54.088                             : en:Chapter 24
01:10:48.202                             : en:Chapter 25
01:14:42.769                             : en:Chapter 26
01:18:55.772                             : en:Chapter 27
01:21:17.664                             : en:Chapter 28
01:23:23.748                             : en:Chapter 29
01:28:11.244                             : en:Chapter 30
01:33:23.931                             : en:Chapter 31
01:35:23.509                             : en:Chapter 32
01:40:23.892                             : en:Chapter 33








Enlaces de Mega y Google Drive solo disponibles para Miembros VIP

Compra tu Membresía VIP y apoya a Club-HD!

ATENCIÓN! Tenemos TODO el material de Club-HD disponible por Mega y Google Drive, enlaces 100% activos y online hasta la fecha

Llévate tus cuentas Mega PRO III gratis con tu membresía VIP!
Todos los posts vivos con links de Mega y Google Drive.
Todo el material de Club-HD desbloqueado y sin publicidad.

Click Aquí para más información.


Enlaces de Mega y Google Drive solo disponibles para Miembros VIP

Compra tu Membresía VIP y apoya a Club-HD!

ATENCIÓN! Tenemos TODO el material de Club-HD disponible por Mega y Google Drive, enlaces 100% activos y online hasta la fecha

Llévate tus cuentas Mega PRO III gratis con tu membresía VIP!
Todos los posts vivos con links de Mega y Google Drive.
Todo el material de Club-HD desbloqueado y sin publicidad.

Click Aquí para más información.


Para ver este contenido oculto, debes dar click en una de las siguientes reacciones : Like Like, Love Love, Haha Haha, Wow Wow, Sad Sad, Angry Angry


Para ver este contenido oculto, debes dar click en una de las siguientes reacciones : Like Like, Love Love, Haha Haha, Wow Wow, Sad Sad, Angry Angry
 
Última edición por un moderador:

cripp

Well-known member
Registro
27 Ago 2012
Mensajes
10.401
Muchas gracias por el aporte, se ve interesante, a descargar...
 

Usuarios Que Están Viendo Este Tema (Total: 1, Miembros: 0, Invitados: 1)

Quién Leyó Este Tema (Total Miembros: 1)

Arriba