Fast & Furious 6 (2013) EXTENDED m-720p BDRip Dual Latino-Inglés [Subt. Esp] (Acción)

Maestro Revolver

Well-known member
Miembro del Staff
Administrador
Registro
9 Ago 2012
Mensajes
3.567








TÍTULO ORIGINAL: Fast & Furious 6 (Fast and Furious 6)
AÑO: 2013
DURACIÓN: 130 min.
PAÍS: USA
DIRECTOR: Justin Lin
GUIÓN: Chris Morgan
REPARTO: Vin Diesel, Dwayne "The Rock" Johnson, Gina Carano, Michelle Rodriguez, Paul Walker, Luke Evans, Jordana Brewster, Elsa Pataky, Sung Kang, Gal Gadot, Ludacris, Tyrese Gibson, Joe Taslim
PRODUCTORA: Universal Pictures / Original Film / Etalon film
GÉNERO: Acción. Thriller | Crimen. Coches / Automovilismo. Secuela. Terrorismo
: http://www.imdb.com/title/tt1905041/






Desde que Dom (Vin Diesel) y Brian (Paul Walker) destruyeron el imperio de un mafioso y se hicieron con cien millones de dólares, se encuentran en paradero desconocido; no pueden regresar a casa porque la ley los persigue. Entretanto, Hobbs (Dwayne Johnson) ha seguido la pista por una docena de países a una banda de letales conductores mercenarios, cuyo cerebro (Luke Evans) cuenta con la inestimable ayuda de la sexy Letty (Michelle Rodriguez), un viejo amor de Dom que éste daba por muerta. La única forma de detenerlos es enfrentarse a ellos en las calles, así que Hobbs le pide a Dom que reúna a su equipo en Londres. ¿Qué obtendrán a cambio? Un indulto para que todos puedan volver a casa con sus familias.
























La pelicula NO tiene ninguna marca... solo colocamos el nombre de esta web en las capturas






Código:
General
Format                                   : Matroska
Format version                           : Version 2
File size                                : 3.52 GiB
Duration                                 : 2h 11mn
Overall bit rate mode                    : Variable
Overall bit rate                         : 3 832 Kbps
Movie name                               : www.club-hd.com
Encoded date                             : UTC 2013-09-06 00:56:58
Writing application                      : mkvmerge v5.7.0 ('The Whirlwind') built on Jul  8 2012 20:08:51
Writing library                          : libebml v1.2.3 + libmatroska v1.3.0

Video
ID                                       : 1
Format                                   : AVC
Format/Info                              : Advanced Video Codec
Format profile                           : High@L4.1
Format settings, CABAC                   : Yes
Format settings, ReFrames                : 6 frames
Codec ID                                 : V_MPEG4/ISO/AVC
Duration                                 : 2h 11mn
Bit rate                                 : 2 587 Kbps
Width                                    : 1 280 pixels
Height                                   : 544 pixels
Display aspect ratio                     : 2.35:1
Frame rate mode                          : Constant
Frame rate                               : 23.976 fps
Color space                              : YUV
Chroma subsampling                       : 4:2:0
Bit depth                                : 8 bits
Scan type                                : Progressive
Bits/(Pixel*Frame)                       : 0.155
Stream size                              : 2.38 GiB (68%)
Title                                    : www.club-hd.com
Writing library                          : x264 core 133 r2334 a3ac64b
Language                                 : English
Default                                  : Yes
Forced                                   : No

Audio #1
ID                                       : 2
Format                                   : AC-3
Format/Info                              : Audio Coding 3
Mode extension                           : CM (complete main)
Format settings, Endianness              : Big
Codec ID                                 : A_AC3
Duration                                 : 2h 11mn
Bit rate mode                            : Constant
Bit rate                                 : 448 Kbps
Channel(s)                               : 6 channels
Channel positions                        : Front: L C R, Side: L R, LFE
Sampling rate                            : 48.0 KHz
Bit depth                                : 16 bits
Compression mode                         : Lossy
Stream size                              : 421 MiB (12%)
Title                                    : www.club-hd.com > Latino AC3 5.1 [Audio Exclusivo de Revolver22 para Club-HD] EXTENDED
Language                                 : Spanish
Default                                  : Yes
Forced                                   : No

Audio #2
ID                                       : 3
Format                                   : AC-3
Format/Info                              : Audio Coding 3
Mode extension                           : CM (complete main)
Format settings, Endianness              : Big
Codec ID                                 : A_AC3
Duration                                 : 2h 11mn
Bit rate mode                            : Constant
Bit rate                                 : 640 Kbps
Channel(s)                               : 6 channels
Channel positions                        : Front: L C R, Side: L R, LFE
Sampling rate                            : 48.0 KHz
Bit depth                                : 16 bits
Compression mode                         : Lossy
Stream size                              : 602 MiB (17%)
Title                                    : www.club-hd.com > Inglés AC3 5.1
Language                                 : English
Default                                  : No
Forced                                   : No

Audio #3
ID                                       : 4
Format                                   : Vorbis
Format settings, Floor                   : 1
Codec ID                                 : A_VORBIS
Duration                                 : 2h 11mn
Bit rate mode                            : Variable
Bit rate                                 : 80.0 Kbps
Channel(s)                               : 2 channels
Sampling rate                            : 48.0 KHz
Compression mode                         : Lossy
Stream size                              : 75.3 MiB (2%)
Title                                    : Commentary
Writing library                          : aoTuV 20110424 (UTC 2011-04-24)
Language                                 : English
Default                                  : No
Forced                                   : No

Text #1
ID                                       : 5
Format                                   : UTF-8
Codec ID                                 : S_TEXT/UTF8
Codec ID/Info                            : UTF-8 Plain Text
Title                                    : Forzados [Exclusivo Club-HD.com]
Language                                 : Spanish
Default                                  : Yes
Forced                                   : No

Text #2
ID                                       : 6
Format                                   : UTF-8
Codec ID                                 : S_TEXT/UTF8
Codec ID/Info                            : UTF-8 Plain Text
Title                                    : Completos
Language                                 : Spanish
Default                                  : No
Forced                                   : No

Menu
00:00:00.000                             : en:00:00:00.000
00:04:21.011                             : en:00:04:21.011
00:10:19.118                             : en:00:10:19.118
00:15:35.268                             : en:00:15:35.268
00:19:18.574                             : en:00:19:18.574
00:24:32.721                             : en:00:24:32.721
00:30:23.405                             : en:00:30:23.405
00:36:28.478                             : en:00:36:28.478
00:44:01.305                             : en:00:44:01.305
00:50:50.255                             : en:00:50:50.255
00:56:54.327                             : en:00:56:54.327
01:04:54.057                             : en:01:04:54.057
01:10:14.293                             : en:01:10:14.293
01:19:13.457                             : en:01:19:13.457
01:25:41.178                             : en:01:25:41.178
01:34:53.771                             : en:01:34:53.771
01:41:48.561                             : en:01:41:48.561
01:48:31.838                             : en:01:48:31.838
01:57:48.812                             : en:01:57:48.812
02:03:04.418                             : en:02:03:04.418






NOTA: El audio latino esta editado por mi (revolver22) ya que no salio el bluray con audio latino completo. Notaran un aumento de volumen en las partes extendidas y en algunas escenas donde hablan en Inglés, porque la calidad del audio original siempre en mejor que el doblaje. También les dejo unos subtítulos Forzados para esas escenas donde hablan en Inglés, carteles y otros idiomas.

Saludos amigos y espero que desfruen esta película.




Audio Latino Exclusivo Club-HD








Enlaces de Mega y Google Drive solo disponibles para Miembros VIP

Compra tu Membresía VIP y apoya a Club-HD!

ATENCIÓN! Tenemos TODO el material de Club-HD disponible por Mega y Google Drive, enlaces 100% activos y online hasta la fecha

Llévate tus cuentas Mega PRO III gratis con tu membresía VIP!
Todos los posts vivos con links de Mega y Google Drive.
Todo el material de Club-HD desbloqueado y sin publicidad.

Click Aquí para más información.


Para ver este contenido oculto, debes dar click en una de las siguientes reacciones : Like Like, Love Love, Haha Haha, Wow Wow, Sad Sad, Angry Angry



 
Última edición por un moderador:

Usuarios Que Están Viendo Este Tema (Total: 1, Miembros: 0, Invitados: 1)

Quién Leyó Este Tema (Total Miembros: 3)

Arriba