Frankenweenie (2012) m-720p Dual Latino-Inglés [Subt. Esp-Ing] (Animation)

Maestro Revolver

Well-known member
Miembro del Staff
Administrador
Registro
9 Ago 2012
Mensajes
3.567








TÍTULO ORIGINAL: Frankenweenie
AÑO: 2012
DURACIÓN: 87 min.
PAÍS: USA
DIRECTOR: Tim Burton
GUIÓN: John August (Historia: Tim Burton, Leonard Ripps)
REPARTO: Animation
PRODUCTORA: Walt Disney Pictures / Tim Burton Animation Co. / Tim Burton Productions
GÉNERO: Animación. Ciencia ficción. Comedia. Terror | Comedia de terror. Stop Motion. Perros/Lobos. Monstruos. Remake
: http://www.imdb.com/title/tt1142977/

PREMIOS: 2012: Círculo de Críticos de Nueva York: Mejor película de animación
2012: Premios Annie: 5 nominaciones, incluyendo mejor película
2012: Globos de Oro: Nominada a Mejor película de animación
2012: Asociación de Críticos de Los Angeles: Mejor película de animación
2012: Asociación de Boston: Mejor película de animación
2012: Satellite Awards: Nominado a Mejor largometraje de animación






Película basada en el cortometraje homónimo que el propio Burton realizó en 1984. El experimento científico que lleva a cabo el pequeño Victor para hacer resucitar su adorado perro Sparky, lo obligará a afrontar terribles situaciones cuyas consecuencias son imprevisibles.
























La pelicula NO tiene ninguna marca... solo colocamos el nombre de esta web en las capturas






Código:
General
Format                                   : Matroska
Format version                           : Version 2
File size                                : 2.39 GiB
Duration                                 : 1h 26mn
Overall bit rate                         : 3 939 Kbps
Movie name                               : www.club-hd.com
Encoded date                             : UTC 2012-12-22 15:05:37
Writing application                      : mkvmerge v5.7.0 ('The Whirlwind') built on Jul  8 2012 20:08:51
Writing library                          : libebml v1.2.3 + libmatroska v1.3.0

Video
ID                                       : 1
Format                                   : AVC
Format/Info                              : Advanced Video Codec
Format profile                           : High@L4.1
Format settings, CABAC                   : Yes
Format settings, ReFrames                : 9 frames
Codec ID                                 : V_MPEG4/ISO/AVC
Duration                                 : 1h 26mn
Bit rate                                 : 2 658 Kbps
Width                                    : 1 280 pixels
Height                                   : 694 pixels
Display aspect ratio                     : 1.85:1
Frame rate mode                          : Constant
Frame rate                               : 23.976 fps
Color space                              : YUV
Chroma subsampling                       : 4:2:0
Bit depth                                : 8 bits
Scan type                                : Progressive
Bits/(Pixel*Frame)                       : 0.125
Stream size                              : 1.57 GiB (66%)
Title                                    : www.club-hd.com
Writing library                          : x264 core 129 r2230 1cffe9f
Language                                 : English
Default                                  : Yes
Forced                                   : No

Audio #1
ID                                       : 2
Format                                   : AC-3
Format/Info                              : Audio Coding 3
Mode extension                           : CM (complete main)
Format settings, Endianness              : Big
Codec ID                                 : A_AC3
Duration                                 : 1h 26mn
Bit rate mode                            : Constant
Bit rate                                 : 640 Kbps
Channel(s)                               : 6 channels
Channel positions                        : Front: L C R, Side: L R, LFE
Sampling rate                            : 48.0 KHz
Bit depth                                : 16 bits
Compression mode                         : Lossy
Stream size                              : 398 MiB (16%)
Title                                    : www.club-hd.com  >>  Latino
Language                                 : Spanish
Default                                  : Yes
Forced                                   : No

Audio #2
ID                                       : 3
Format                                   : AC-3
Format/Info                              : Audio Coding 3
Mode extension                           : CM (complete main)
Format settings, Endianness              : Big
Codec ID                                 : A_AC3
Duration                                 : 1h 26mn
Bit rate mode                            : Constant
Bit rate                                 : 640 Kbps
Channel(s)                               : 6 channels
Channel positions                        : Front: L C R, Side: L R, LFE
Sampling rate                            : 48.0 KHz
Bit depth                                : 16 bits
Compression mode                         : Lossy
Stream size                              : 398 MiB (16%)
Title                                    : www.club-hd.com  >>  Inglés
Language                                 : English
Default                                  : No
Forced                                   : No

Text #1
ID                                       : 4
Format                                   : UTF-8
Codec ID                                 : S_TEXT/UTF8
Codec ID/Info                            : UTF-8 Plain Text
Title                                    : Forzados
Language                                 : Spanish
Default                                  : Yes
Forced                                   : No

Text #2
ID                                       : 5
Format                                   : UTF-8
Codec ID                                 : S_TEXT/UTF8
Codec ID/Info                            : UTF-8 Plain Text
Language                                 : Spanish
Default                                  : No
Forced                                   : No

Text #3
ID                                       : 6
Format                                   : UTF-8
Codec ID                                 : S_TEXT/UTF8
Codec ID/Info                            : UTF-8 Plain Text
Language                                 : English
Default                                  : No
Forced                                   : No

Menu
00:00:00.000                             : en:Chapter 1
00:05:25.325                             : en:Chapter 2
00:11:17.218                             : en:Chapter 3
00:15:32.014                             : en:Chapter 4
00:19:28.292                             : en:Chapter 5
00:26:09.318                             : en:Chapter 6
00:31:59.793                             : en:Chapter 7
00:35:52.525                             : en:Chapter 8
00:41:12.178                             : en:Chapter 9
00:46:44.385                             : en:Chapter 10
00:50:13.344                             : en:Chapter 11
00:55:24.863                             : en:Chapter 12
01:03:47.198                             : en:Chapter 13
01:09:25.995                             : en:Chapter 14
01:16:44.934                             : en:Chapter 15
01:20:08.804                             : en:Chapter 16










Enlaces de Mega y Google Drive solo disponibles para Miembros VIP

Compra tu Membresía VIP y apoya a Club-HD!

ATENCIÓN! Tenemos TODO el material de Club-HD disponible por Mega y Google Drive, enlaces 100% activos y online hasta la fecha

Llévate tus cuentas Mega PRO III gratis con tu membresía VIP!
Todos los posts vivos con links de Mega y Google Drive.
Todo el material de Club-HD desbloqueado y sin publicidad.

Click Aquí para más información.






Enlaces de Mega y Google Drive solo disponibles para Miembros VIP

Compra tu Membresía VIP y apoya a Club-HD!

ATENCIÓN! Tenemos TODO el material de Club-HD disponible por Mega y Google Drive, enlaces 100% activos y online hasta la fecha

Llévate tus cuentas Mega PRO III gratis con tu membresía VIP!
Todos los posts vivos con links de Mega y Google Drive.
Todo el material de Club-HD desbloqueado y sin publicidad.

Click Aquí para más información.




Enlaces de Mega y Google Drive solo disponibles para Miembros VIP

Compra tu Membresía VIP y apoya a Club-HD!

ATENCIÓN! Tenemos TODO el material de Club-HD disponible por Mega y Google Drive, enlaces 100% activos y online hasta la fecha

Llévate tus cuentas Mega PRO III gratis con tu membresía VIP!
Todos los posts vivos con links de Mega y Google Drive.
Todo el material de Club-HD desbloqueado y sin publicidad.

Click Aquí para más información.



Para ver este contenido oculto, debes dar click en una de las siguientes reacciones : Like Like, Love Love, Haha Haha, Wow Wow, Sad Sad, Angry Angry
 
Última edición por un moderador:

Bersek02

Active member
Registro
30 Ago 2012
Mensajes
353
Edad
39
Se ve gracioso el perrito!!:crcjd:me dieron ganas de verla.Gracias por compartir. Feliz navidad y año nuevo Revolver21Hurr4h.
 

Joker

Well-known member
Miembro del Staff
Súper Moderador
Registro
27 Ago 2012
Mensajes
1.349
Ubicación
Arkham Asylum
Ya había comentado en la versión 1080p pero no he iniciado la descarga, creo que mejor me llevare esta =P

Saludos :D
 

Usuarios Que Están Viendo Este Tema (Total: 1, Miembros: 0, Invitados: 1)

Quién Leyó Este Tema (Total Miembros: 1)

Arriba