Gamer (2009) 3D H-SBS 1080p BDRip Dual Latino-Inglés [Subt. Esp] (Ciencia ficción. Thriller. Acción)

Maestro Revolver

Well-known member
Miembro del Staff
Administrador
Registro
9 Ago 2012
Mensajes
3.567








TÍTULO ORIGINAL: Gamer (Citizen Game)
AÑO: 2009
DURACIÓN: 95 min.
PAÍS: USA
DIRECTOR: Mark Neveldine, Brian Taylor
GUIÓN: Mark Neveldine, Brian Taylor
REPARTO: Gerard Butler, Michael C. Hall, Alison Lohman, John Leguizamo, Amber Valletta, Aaron Yo, Logan Lerman, Keith David, Ludacris, Michael Weston, Kyra Sedgwick, Noel Gugliemi, Terry Crews, Johnny Whitworth, Zoe Bell, Milo Ventimiglia, Dylan Kenin, Efren Ramirez, Stephanie Mace, Sam Witwer
PRODUCTORA: Lions Gate Films / Lakeshore Entertainment / Albuquerque Studios
GÉNERO: Ciencia ficción. Thriller. Acción | Videojuego
: http://www.imdb.com/title/tt1034032/






En un futuro, en un juego denominado Slayers, uno de los participantes puede controlar a millones de seres humanos a través del sistema multijugador. En el "Slayer" juego y espectáculo están envueltos en un híbrido aterrador. Humanos controlados por humanos a gran escala, juegos en red donde personas representan a personas para siempre. La Tecnología del control mental se ha extendido, y el corazón de ese controvertido e hiperviolento juego es su creador, el multimillonario Ken Castle (Michael C. Hall). Su última creación es un juego de disparo en primera persona, que permite proyectar las fantasías más salvajes de cada uno ante un público global, utilizando prisioneros reales como avatares que luchan contra la muerte. Pero Kable (Gerard Butler), un poderoso guerrero controlado por el joven Simon, intentará liberarse a sí mismo y al resto de jugadores del mundo...
























La pelicula NO tiene ninguna marca... solo colocamos el nombre de esta web en las capturas






Código:
General
Format                                   : Matroska
Format version                           : Version 3 / Version 2
File size                                : 9.68 GiB
Duration                                 : 1h 35mn
Overall bit rate                         : 14.6 Mbps
Movie name                               : www.club-hd.com
Encoded date                             : UTC 2013-05-11 13:40:45
Writing application                      : mkvmerge v5.7.0 ('The Whirlwind') built on Jul  8 2012 20:08:51
Writing library                          : libebml v1.2.3 + libmatroska v1.3.0

Video
ID                                       : 1
Format                                   : AVC
Format/Info                              : Advanced Video Codec
Format profile                           : High@L4.1
MultiView_Count                          : 2
MultiView_Layout                         : Side by Side (left eye first)
Format settings, CABAC                   : Yes
Format settings, ReFrames                : 4 frames
Codec ID                                 : V_MPEG4/ISO/AVC
Duration                                 : 1h 35mn
Bit rate                                 : 11.7 Mbps
Width                                    : 1 920 pixels
Height                                   : 1 080 pixels
Display aspect ratio                     : 16:9
Frame rate mode                          : Constant
Frame rate                               : 23.976 fps
Color space                              : YUV
Chroma subsampling                       : 4:2:0
Bit depth                                : 8 bits
Scan type                                : Progressive
Bits/(Pixel*Frame)                       : 0.235
Stream size                              : 7.77 GiB (80%)
Title                                    : www.club-hd.com
Writing library                          : x264 core 132 r2309 3b1f1f7
Language                                 : English
Default                                  : Yes
Forced                                   : No

Audio #1
ID                                       : 2
Format                                   : AC-3
Format/Info                              : Audio Coding 3
Mode extension                           : CM (complete main)
Format settings, Endianness              : Big
Codec ID                                 : A_AC3
Duration                                 : 1h 35mn
Bit rate mode                            : Constant
Bit rate                                 : 448 Kbps
Channel(s)                               : 6 channels
Channel positions                        : Front: L C R, Side: L R, LFE
Sampling rate                            : 48.0 KHz
Bit depth                                : 16 bits
Compression mode                         : Lossy
Delay relative to video                  : 500ms
Stream size                              : 304 MiB (3%)
Title                                    : www.club-hd.com  >>  Latino AC3
Language                                 : Spanish
Default                                  : Yes
Forced                                   : No

Audio #2
ID                                       : 3
Format                                   : AC-3
Format/Info                              : Audio Coding 3
Mode extension                           : CM (complete main)
Format settings, Endianness              : Big
Codec ID                                 : A_AC3
Duration                                 : 1h 35mn
Bit rate mode                            : Constant
Bit rate                                 : 640 Kbps
Channel(s)                               : 6 channels
Channel positions                        : Front: L C R, Side: L R, LFE
Sampling rate                            : 48.0 KHz
Bit depth                                : 16 bits
Compression mode                         : Lossy
Stream size                              : 435 MiB (4%)
Title                                    : www.club-hd.com  >>  Inglés AC3
Language                                 : English
Default                                  : No
Forced                                   : No

Audio #3
ID                                       : 4
Format                                   : DTS
Format/Info                              : Digital Theater Systems
Mode                                     : 16
Format settings, Endianness              : Big
Codec ID                                 : A_DTS
Duration                                 : 1h 35mn
Bit rate mode                            : Constant
Bit rate                                 : 1 509 Kbps
Channel(s)                               : 6 channels
Channel positions                        : Front: L C R, Side: L R, LFE
Sampling rate                            : 48.0 KHz
Bit depth                                : 24 bits
Compression mode                         : Lossy
Stream size                              : 1.00 GiB (10%)
Title                                    : www.club-hd.com  >>  Inglés DTS
Language                                 : English
Default                                  : No
Forced                                   : No

Text
ID                                       : 5
Format                                   : UTF-8
Codec ID                                 : S_TEXT/UTF8
Codec ID/Info                            : UTF-8 Plain Text
Language                                 : Spanish
Default                                  : No
Forced                                   : No

Menu
00:00:00.000                             : en:00:00:00.000
00:04:52.000                             : en:00:04:52.000
00:08:11.324                             : en:00:08:11.324
00:16:31.407                             : en:00:16:31.407
00:20:09.750                             : en:00:20:09.750
00:27:35.654                             : en:00:27:35.654
00:33:28.632                             : en:00:33:28.632
00:38:19.881                             : en:00:38:19.881
00:42:07.358                             : en:00:42:07.358
00:45:57.088                             : en:00:45:57.088
00:52:40.949                             : en:00:52:40.949
00:59:59.596                             : en:00:59:59.596
01:02:18.818                             : en:01:02:18.818
01:07:41.057                             : en:01:07:41.057
01:11:29.243                             : en:01:11:29.243
01:19:14.291                             : en:01:19:14.291





Otros links, nuevos links checados. Dejen su cometario para saber si esta todo bien.









Enlaces de Mega y Google Drive solo disponibles para Miembros VIP

Compra tu Membresía VIP y apoya a Club-HD!

ATENCIÓN! Tenemos TODO el material de Club-HD disponible por Mega y Google Drive, enlaces 100% activos y online hasta la fecha

Llévate tus cuentas Mega PRO III gratis con tu membresía VIP!
Todos los posts vivos con links de Mega y Google Drive.
Todo el material de Club-HD desbloqueado y sin publicidad.

Click Aquí para más información.


Para ver este contenido oculto, debes dar click en una de las siguientes reacciones : Like Like, Love Love, Haha Haha, Wow Wow, Sad Sad, Angry Angry

 
Última edición por un moderador:

Usuarios Que Están Viendo Este Tema (Total: 1, Miembros: 0, Invitados: 1)

Quién Leyó Este Tema (Total Miembros: 1)

Arriba