Gangs Of New York (2002) REMASTERED m-720p BDRip Dual Latino-Inglés [Subt. Esp-Ing] (Drama)

Max

Admin
Miembro del Staff
Administrador
Registro
8 Ago 2012
Mensajes
5.770
Reacciones
24.078
Puntos
113
Ubicación
Disco C

Reputation:





TÍTULO ORIGINAL: Gangs of New York
TÍTULO EN LATINO: Pandillas de Nueva York
AÑO: 2002
DURACIÓN: 168 min.
PAÍS: Estados Unidos
DIRECTOR: Martin Scorsese
GUIÓN: Jay Cocks, Steven Zaillian, Kenneth Lonergan
MÚSICA: Howard Shore
FOTOGRAFÍA: Michael Ballhaus
REPARTO: Leonardo DiCaprio, Daniel Day-Lewis, Cameron Diaz, Jim Broadbent, John C. Reilly, Henry Thomas, Brendan Gleeson, Liam Neeson, Stephen Graham, Gary Lewis, Cara Seymour, David Hemmings, Lawrence Gilliard Jr., Eddie Marsan, Alec McCowen, Roger Ashton-Griffiths, Michael Byrne, John Sessions, Lucy Davenport
PRODUCTORA: Coproducción USA-Alemania-GB-Italia; Miramax Films
PREMIOS:
2002: 10 Nominaciones a los Oscar, incluyendo mejor película, director, guión, actor (Lewis)
2002: Globos de Oro: Mejor Director y canción original. 5 nominaciones
2002: Premios BAFTA: Mejor actor (Day-Lewis). 12 nom., incluyendo mejor película
2002: Nominada al Cesar: Mejor película extranjera
2002: Círculo de críticos de Nueva York: Mejor actor (Daniel Day-Lewis)
2002: Asociación de Críticos de Los Angeles: Mejor actor (Day-Lewis) y diseño de prod.
2002: American Film Institute (AFI): Top 10 - Mejores películas del año
2002: Critics' Choice Awards: Mejor actor (Day-Lewis). 3 nominaciones
GÉNERO: Drama | Crimen. Siglo XIX

http://www.imdb.com/title/tt0217505/?ref_=fn_al_tt_1






Nueva York, 1863. La ciudad está dominada por la corrupción política, y la guerra entre bandas provoca muertos y disturbios. En este contexto, el joven inmigrante irlandés Amsterdam Vallon (Leonardo DiCaprio) quiere vengarse de William Cutting, "Bill el carnicero" (Daniel Day-Lewis), el hombre que mató a su padre (Liam Neeson).























































Código:
General
Complete name                            : Gangs Of New York (2002) REMASTERED m-720p BDRip Dual Latino-Inglés [Subt. Esp-Ing].mkv
Format                                   : Matroska
Format version                           : Version 2
File size                                : 5.28 GiB
Duration                                 : 2h 46mn
Overall bit rate                         : 4 535 Kbps
Movie name                               : www.club-hd.com --> Gangs Of New York (2002) REMASTERED m-720p BDRip Dual Latino-Inglés [Subt. Esp-Ing]
Encoded date                             : UTC 2013-02-20 18:33:50
Writing application                      : mkvmerge v5.8.0 ('No Sleep / Pillow') built on Sep  2 2012 15:37:04
Writing library                          : libebml v1.2.3 + libmatroska v1.3.0

Video
ID                                       : 1
Format                                   : AVC
Format/Info                              : Advanced Video Codec
Format profile                           : High@L4.1
Format settings, CABAC                   : Yes
Format settings, ReFrames                : 8 frames
Codec ID                                 : V_MPEG4/ISO/AVC
Duration                                 : 2h 46mn
Bit rate                                 : 3 000 Kbps
Width                                    : 1 280 pixels
Height                                   : 544 pixels
Display aspect ratio                     : 2.35:1
Frame rate mode                          : Constant
Frame rate                               : 23.976 fps
Color space                              : YUV
Chroma subsampling                       : 4:2:0
Bit depth                                : 8 bits
Scan type                                : Progressive
Bits/(Pixel*Frame)                       : 0.180
Stream size                              : 3.39 GiB (64%)
Title                                    : www.club-hd.com --> Gangs Of New York (2002) REMASTERED m-720p BDRip Dual Latino-Inglés [Subt. Esp-Ing]
Writing library                          : x264 core 120
Encoding settings                        : cabac=1 / ref=9 / deblock=1:-2:-2 / analyse=0x3:0x133 / me=umh / subme=10 / psy=1 / psy_rd=1.00:0.00 / mixed_ref=1 / me_range=24 / chroma_me=1 / trellis=2 / 8x8dct=1 / cqm=0 / deadzone=21,11 / fast_pskip=1 / chroma_qp_offset=-2 / threads=24 / sliced_threads=0 / nr=0 / decimate=1 / interlaced=0 / bluray_compat=0 / constrained_intra=0 / bframes=3 / b_pyramid=1 / b_adapt=1 / b_bias=0 / direct=1 / weightb=1 / open_gop=0 / weightp=2 / keyint=240 / keyint_min=24 / scenecut=40 / intra_refresh=0 / rc_lookahead=50 / rc=2pass / mbtree=1 / bitrate=3000 / ratetol=1.0 / qcomp=0.60 / qpmin=3 / qpmax=69 / qpstep=4 / cplxblur=20.0 / qblur=0.5 / ip_ratio=1.40 / aq=1:1.00
Language                                 : English
Default                                  : Yes
Forced                                   : No
Color primaries                          : BT.709
Transfer characteristics                 : BT.709
Matrix coefficients                      : BT.709

Audio #1
ID                                       : 2
Format                                   : AC-3
Format/Info                              : Audio Coding 3
Format profile                           : Dolby Digital
Mode extension                           : CM (complete main)
Format settings, Endianness              : Big
Codec ID                                 : A_AC3
Duration                                 : 2h 46mn
Bit rate mode                            : Constant
Bit rate                                 : 320 Kbps
Channel(s)                               : 2 channels
Channel positions                        : Front: L R
Sampling rate                            : 48.0 KHz
Bit depth                                : 16 bits
Compression mode                         : Lossy
Stream size                              : 381 MiB (7%)
Title                                    : Gangs Of New York (2002) REMASTERED - Español Latino AC3 2.0
Language                                 : Spanish
Default                                  : Yes
Forced                                   : No

Audio #2
ID                                       : 3
Format                                   : AC-3
Format/Info                              : Audio Coding 3
Mode extension                           : CM (complete main)
Format settings, Endianness              : Big
Codec ID                                 : A_AC3
Duration                                 : 2h 46mn
Bit rate mode                            : Constant
Bit rate                                 : 384 Kbps
Channel(s)                               : 6 channels
Channel positions                        : Front: L C R, Side: L R, LFE
Sampling rate                            : 48.0 KHz
Bit depth                                : 16 bits
Compression mode                         : Lossy
Stream size                              : 458 MiB (8%)
Title                                    : Gangs Of New York (2002) REMASTERED - Español Latino AC3 5.1 (Doblaje Original del DVD)
Language                                 : Spanish
Default                                  : No
Forced                                   : No

Audio #3
ID                                       : 4
Format                                   : AC-3
Format/Info                              : Audio Coding 3
Mode extension                           : CM (complete main)
Format settings, Endianness              : Big
Codec ID                                 : A_AC3
Duration                                 : 2h 46mn
Bit rate mode                            : Constant
Bit rate                                 : 640 Kbps
Channel(s)                               : 6 channels
Channel positions                        : Front: L C R, Side: L R, LFE
Sampling rate                            : 48.0 KHz
Bit depth                                : 16 bits
Compression mode                         : Lossy
Stream size                              : 763 MiB (14%)
Title                                    : Gangs Of New York (2002) REMASTERED - Inglés AC3 5.1
Language                                 : English
Default                                  : No
Forced                                   : No

Audio #4
ID                                       : 5
Format                                   : AC-3
Format/Info                              : Audio Coding 3
Mode extension                           : CM (complete main)
Format settings, Endianness              : Big
Codec ID                                 : A_AC3
Duration                                 : 2h 46mn
Bit rate mode                            : Constant
Bit rate                                 : 192 Kbps
Channel(s)                               : 2 channels
Channel positions                        : Front: L R
Sampling rate                            : 48.0 KHz
Bit depth                                : 16 bits
Compression mode                         : Lossy
Stream size                              : 229 MiB (4%)
Title                                    : Comentarios por Martin Scorsese
Language                                 : English
Default                                  : No
Forced                                   : No

Text #1
ID                                       : 6
Format                                   : UTF-8
Codec ID                                 : S_TEXT/UTF8
Codec ID/Info                            : UTF-8 Plain Text
Title                                    : Subtítulos Español
Language                                 : Spanish
Default                                  : No
Forced                                   : No

Text #2
ID                                       : 7
Format                                   : UTF-8
Codec ID                                 : S_TEXT/UTF8
Codec ID/Info                            : UTF-8 Plain Text
Title                                    : Subtítulos Inglés
Language                                 : English
Default                                  : No
Forced                                   : No










Enlaces de Mega y Fireload solo disponibles para Miembros VIP

Compra tu Membresía VIP y apoya a Club-HD!

ATENCIÓN! Tenemos TODO el material de Club-HD disponible por Mega y Fireload, enlaces 100% activos y online hasta la fecha

Llévate tus cuentas Mega PRO II gratis con tu membresía VIP!
Todos los posts vivos con links de Mega y Fireload.
Todo el material de Club-HD desbloqueado y sin publicidad.

Click Aquí para más información.




Enlaces de Mega y Fireload solo disponibles para Miembros VIP

Compra tu Membresía VIP y apoya a Club-HD!

ATENCIÓN! Tenemos TODO el material de Club-HD disponible por Mega y Fireload, enlaces 100% activos y online hasta la fecha

Llévate tus cuentas Mega PRO II gratis con tu membresía VIP!
Todos los posts vivos con links de Mega y Fireload.
Todo el material de Club-HD desbloqueado y sin publicidad.

Click Aquí para más información.



Para ver este contenido oculto, debes dar click en una de las siguientes reacciones : Like Like, Love Love, Haha Haha, Wow Wow, Sad Sad, Angry Angry
 
Última edición por un moderador:

Max

Admin
Miembro del Staff
Administrador
Registro
8 Ago 2012
Mensajes
5.770
Reacciones
24.078
Puntos
113
Ubicación
Disco C

Reputation:

:aplausos::aplausos::aplausos: 5 Gigas de pura calidad, gracias Max me la llevo xD

Saludos

Así es Yon, a esta super película le hicimos un super ripeo directo del Bluray Full - Pura calidad! :dplgar:
 

Mate78

Ladron de mi cerebro
Miembro del Staff
Súper Moderador
Registro
27 Ago 2012
Mensajes
1.237
Reacciones
924
Puntos
113

Reputation:

Excelente MAX ahora si me la llevo , gracias Pichon !!!!:aplausos::LXR:H0l4
 

freaked

Active member
Registro
27 Ago 2012
Mensajes
677
Reacciones
70
Puntos
28

Reputation:

mucha gracias estaba esperando esta pelicula en 720p :dplgar:
 

Usuarios Que Están Viendo Este Tema (Total: 1, Miembros: 0, Invitados: 1)

Arriba