Gangster Squad (2013) 1080p BDRip Dual Latino-Inglés [Subt. Esp] (Acción. Crimen)

Maestro Revolver

Well-known member
Miembro del Staff
Administrador
Registro
9 Ago 2012
Mensajes
3.569
Reacciones
59.361
Puntos
113

Reputation:









TÍTULO ORIGINAL: Gangster Squad
AÑO: 2013
DURACIÓN: 113 min.
PAÍS: USA
DIRECTOR: Ruben Fleischer
GUIÓN: Will Beall (Libro: Paul Lieberman)
REPARTO: Josh Brolin, Ryan Gosling, Nick Nolte, Emma Stone, Sean Penn, Robert Patrick, Michael Peña, Giovanni Ribisi, Anthony Mackie, Mireille Enos
PRODUCTORA: Langley Park Productions / Lin Pictures
GÉNERO: Cine negro | Policíaco. Años 40. Años 50. Mafia
: http://www.imdb.com/title/tt1321870/






Una serie de artículos periodísticos dan cuenta de la labor de un equipo especial de policías cuya misión es atrapar a Meyer Harris “Mickey” Cohen, un poderoso gánster judío de los años 40.
























La pelicula NO tiene ninguna marca... solo colocamos el nombre de esta web en las capturas






Código:
General
Format                                   : Matroska
Format version                           : Version 2
File size                                : 8.66 GiB
Duration                                 : 1h 52mn
Overall bit rate                         : 11.0 Mbps
Movie name                               : www.club-hd.com
Encoded date                             : UTC 2013-04-07 23:20:43
Writing application                      : mkvmerge v5.7.0 ('The Whirlwind') built on Jul  8 2012 20:08:51
Writing library                          : libebml v1.2.3 + libmatroska v1.3.0

Video
ID                                       : 1
Format                                   : AVC
Format/Info                              : Advanced Video Codec
Format profile                           : High@L4.1
Format settings, CABAC                   : Yes
Format settings, ReFrames                : 5 frames
Codec ID                                 : V_MPEG4/ISO/AVC
Duration                                 : 1h 52mn
Bit rate                                 : 8 188 Kbps
Width                                    : 1 920 pixels
Height                                   : 800 pixels
Display aspect ratio                     : 2.40:1
Frame rate mode                          : Constant
Frame rate                               : 23.976 fps
Color space                              : YUV
Chroma subsampling                       : 4:2:0
Bit depth                                : 8 bits
Scan type                                : Progressive
Bits/(Pixel*Frame)                       : 0.222
Stream size                              : 6.29 GiB (73%)
Title                                    : www.club-hd.com
Writing library                          : x264 core 130 r2273 b3065e6
Language                                 : English
Default                                  : Yes
Forced                                   : No

Audio #1
ID                                       : 2
Format                                   : AC-3
Format/Info                              : Audio Coding 3
Mode extension                           : CM (complete main)
Format settings, Endianness              : Big
Codec ID                                 : A_AC3
Duration                                 : 1h 52mn
Bit rate mode                            : Constant
Bit rate                                 : 640 Kbps
Channel(s)                               : 6 channels
Channel positions                        : Front: L C R, Side: L R, LFE
Sampling rate                            : 48.0 KHz
Bit depth                                : 16 bits
Compression mode                         : Lossy
Stream size                              : 517 MiB (6%)
Title                                    : www.club-hd.com  >>  Latino AC3 5.1
Language                                 : Spanish
Default                                  : Yes
Forced                                   : No

Audio #2
ID                                       : 3
Format                                   : AC-3
Format/Info                              : Audio Coding 3
Mode extension                           : CM (complete main)
Format settings, Endianness              : Big
Codec ID                                 : A_AC3
Duration                                 : 1h 52mn
Bit rate mode                            : Constant
Bit rate                                 : 640 Kbps
Channel(s)                               : 6 channels
Channel positions                        : Front: L C R, Side: L R, LFE
Sampling rate                            : 48.0 KHz
Bit depth                                : 16 bits
Compression mode                         : Lossy
Stream size                              : 517 MiB (6%)
Title                                    : www.club-hd.com  >>  Inglés AC3 5.1
Language                                 : English
Default                                  : No
Forced                                   : No

Audio #3
ID                                       : 4
Format                                   : DTS
Format/Info                              : Digital Theater Systems
Mode                                     : 16
Format settings, Endianness              : Big
Codec ID                                 : A_DTS
Duration                                 : 1h 52mn
Bit rate mode                            : Constant
Bit rate                                 : 1 509 Kbps
Channel(s)                               : 6 channels
Channel positions                        : Front: L C R, Side: L R, LFE
Sampling rate                            : 48.0 KHz
Bit depth                                : 24 bits
Compression mode                         : Lossy
Stream size                              : 1.19 GiB (14%)
Title                                    : www.club-hd.com  >>  Inglés DTS 5.1
Language                                 : English
Default                                  : No
Forced                                   : No

Text #1
ID                                       : 5
Format                                   : UTF-8
Codec ID                                 : S_TEXT/UTF8
Codec ID/Info                            : UTF-8 Plain Text
Title                                    : Forzados
Language                                 : Spanish
Default                                  : Yes
Forced                                   : No

Text #2
ID                                       : 6
Format                                   : UTF-8
Codec ID                                 : S_TEXT/UTF8
Codec ID/Info                            : UTF-8 Plain Text
Language                                 : Spanish
Default                                  : No
Forced                                   : No

Menu
00:00:00.000                             : en:00:00:00.000
00:09:53.635                             : en:00:09:53.635
00:20:51.167                             : en:00:20:51.167
00:28:36.173                             : en:00:28:36.173
00:39:22.860                             : en:00:39:22.860
00:49:25.462                             : en:00:49:25.462
00:59:59.262                             : en:00:59:59.262
01:09:23.493                             : en:01:09:23.493
01:20:05.259                             : en:01:20:05.259
01:31:01.539                             : en:01:31:01.539
01:38:50.341                             : en:01:38:50.341
01:44:11.370                             : en:01:44:11.370








Enlaces de Mega y Fireload solo disponibles para Miembros VIP

Compra tu Membresía VIP y apoya a Club-HD!

ATENCIÓN! Tenemos TODO el material de Club-HD disponible por Mega y Fireload, enlaces 100% activos y online hasta la fecha

Llévate tus cuentas Mega PRO II gratis con tu membresía VIP!
Todos los posts vivos con links de Mega y Fireload.
Todo el material de Club-HD desbloqueado y sin publicidad.

Click Aquí para más información.



Para ver este contenido oculto, debes dar click en una de las siguientes reacciones : Like Like, Love Love, Haha Haha, Wow Wow, Sad Sad, Angry Angry

 
Última edición por un moderador:

zacygal

Well-known member
Registro
3 Sep 2012
Mensajes
1.515
Reacciones
1.536
Puntos
113
Edad
49

Reputation:

Maestro que buena pela, ojala la subas en 720 ...
 

nathan8

Well-known member
Registro
27 Ago 2012
Mensajes
1.770
Reacciones
349
Puntos
83
Edad
32

Reputation:

buenisima esta pelicula., ayer me la queme en ingles y aora me descargare la dual, muchas grasias.
 

Joker

Well-known member
Miembro del Staff
Súper Moderador
Registro
27 Ago 2012
Mensajes
1.349
Reacciones
3.764
Puntos
113
Ubicación
Arkham Asylum

Reputation:

Excelente!

Me la llevo por Emma Stone xD

Muchas Gracias!!!

Saludos :D
 

Nosferatu

Well-known member
Súper Moderador
Registro
31 Ago 2012
Mensajes
2.275
Reacciones
1.362
Puntos
113
Edad
44
Ubicación
Welcome to Hell!!

Reputation:

Muy buen estreno, 1080p, y ya dual no se puede pedir mas.:aplausos::aplausos::aplausos:

Muchas Gracias monstruo R21!!!:LXR::LXR::LXR:
 

sharklui

Well-known member
Miembro VIP
Registro
28 Ago 2012
Mensajes
1.026
Reacciones
271
Puntos
83
Ubicación
The Matrix

Reputation:

:aplausos:

Siempre he tenido una duda, Revol, cuando descansas ? :cnfus:

No te imaginas lo agradecidos que estamos por todos los esfuerzos tuyos por traernos siempre lo mejor :aplausos:

Exitos y muchas Bendiciones !!! :LXR:
 

arkkangeldark

Well-known member
Registro
27 Ago 2012
Mensajes
3.445
Reacciones
576
Puntos
113
Edad
34
Ubicación
Torreon Coahuila

Reputation:

ya la habia bajado en ingles pero todavia no la veia, asi que ahora aprovechare esta mejor calidad y en latino, gracias revolver
 

Ezze

Well-known member
Miembro del Staff
Súper Moderador
Registro
28 Ago 2012
Mensajes
1.663
Reacciones
1.790
Puntos
113
Ubicación
En la Torre de Observación

Reputation:

Fua!!! Viene al pelo... Estaba por bajar la versión 720 en inglés xD Muchas gracias Revo!!! :dplgar: A descargarla y disfrutar xD Saludos bye
 

eljumachi

Well-known member
Miembro VIP
Registro
27 Ago 2012
Mensajes
2.174
Reacciones
339
Puntos
83

Reputation:

En dual excelente la estaba esperando, solamente que esperare un ratito mas para el 720p por este y el que viene muchas gracias R21 saludos.
 

Usuarios Que Están Viendo Este Tema (Total: 1, Miembros: 0, Invitados: 1)

Arriba