Girls' Generation - Girls & Peace - Japan 2nd Tour (2013) 720p BDRip [AC3 - DTS 5.1] (Concierto)

Maestro Revolver

Well-known member
Miembro del Staff
Administrador
Registro
9 Ago 2012
Mensajes
3.567








"2013 Girls' Generation World Tour - Girls & Peace" es la quinta gira de conciertos y la primera gira mundial del grupo femenino sur coreano Girls' Generation. La gira fue anunciada oficialmente en abril de 2013 con dos fechas en Corea del Sur y los planes para las fechas futuras1 en todo el mundo.



Track List:

01. ~Opening Movie~
02. Flower Power
03. Animal
04. Boomerang
05. ~Movie~
06. The Boys
07. I Got A Boy
08. ~Mc~
09. Say Yes
10. Dancing Queen
11. ~Movie~
12. Mr.Taxi
13. T.O.P
14. Bad Girl
15. ~Movie~
16. Paparazzi
17. Run Devil Run
18. Reflection
19. ~Movie~
20. Time Machine
21. All My Love Is For You
22. ~Movie~
23. I‘m a Diamond
24. Express999
25. Genie
26. The Great Escape
27. Can‘t Take My Eyes Off You
28. ~Movie~
29. My J
30. Kissing you
31. Way To Go
32. Gee
33. ~Mc~
34. Not Alone
35. Beep Beep
36. Oh!
37. ~Mc~
38. Stay Girls
39. Girls & Peace





























Código:
General
Format                                   : Matroska
Format version                           : Version 2
File size                                : 10.6 GiB
Duration                                 : 2h 23mn
Overall bit rate                         : 10.6 Mbps
Movie name                               : www.club-hd.com
Encoded date                             : UTC 2013-10-20 22:25:25
Writing application                      : mkvmerge v5.7.0 ('The Whirlwind') built on Jul  8 2012 20:08:51
Writing library                          : libebml v1.2.3 + libmatroska v1.3.0

Video
ID                                       : 1
Format                                   : AVC
Format/Info                              : Advanced Video Codec
Format profile                           : High@L4.1
Format settings, CABAC                   : Yes
Format settings, ReFrames                : 9 frames
Codec ID                                 : V_MPEG4/ISO/AVC
Duration                                 : 2h 23mn
Bit rate                                 : 8 429 Kbps
Width                                    : 1 280 pixels
Height                                   : 720 pixels
Display aspect ratio                     : 16:9
Frame rate mode                          : Constant
Frame rate                               : 29.970 fps
Color space                              : YUV
Chroma subsampling                       : 4:2:0
Bit depth                                : 8 bits
Scan type                                : Progressive
Bits/(Pixel*Frame)                       : 0.305
Stream size                              : 8.27 GiB (78%)
Title                                    : www.club-hd.com
Writing library                          : x264 core 138 r2359
Language                                 : Japanese
Default                                  : Yes
Forced                                   : No

Audio #1
ID                                       : 2
Format                                   : DTS
Format/Info                              : Digital Theater Systems
Mode                                     : 16
Format settings, Endianness              : Big
Codec ID                                 : A_DTS
Duration                                 : 2h 23mn
Bit rate mode                            : Constant
Bit rate                                 : 1 509 Kbps
Channel(s)                               : 6 channels
Channel positions                        : Front: L C R, Side: L R, LFE
Sampling rate                            : 48.0 KHz
Bit depth                                : 24 bits
Compression mode                         : Lossy
Stream size                              : 1.52 GiB (14%)
Title                                    : DTS
Language                                 : Japanese
Default                                  : Yes
Forced                                   : No

Audio #2
ID                                       : 3
Format                                   : AC-3
Format/Info                              : Audio Coding 3
Mode extension                           : CM (complete main)
Format settings, Endianness              : Big
Codec ID                                 : A_AC3
Duration                                 : 2h 23mn
Bit rate mode                            : Constant
Bit rate                                 : 640 Kbps
Channel(s)                               : 6 channels
Channel positions                        : Front: L C R, Side: L R, LFE
Sampling rate                            : 48.0 KHz
Bit depth                                : 16 bits
Compression mode                         : Lossy
Stream size                              : 659 MiB (6%)
Title                                    : AC3
Language                                 : Japanese
Default                                  : No
Forced                                   : No

Menu
00:00:31.197                             : en:~Opening Movie~
00:06:36.462                             : en:Flower Power
00:09:55.928                             : en:Animal
00:13:47.593                             : en:Boomerang
00:16:39.998                             : en:~Movie~
00:17:57.376                             : en:The Boys
00:22:05.857                             : en:I Got A Boy
00:26:37.662                             : en:~Mc~
00:29:23.761                             : en:Say Yes
00:33:10.421                             : en:Dancing Queen
00:37:03.487                             : en:~Movie~
00:41:06.397                             : en:Mr.Taxi
00:45:36.967                             : en:T.O.P
00:49:15.252                             : en:Bad Girl
00:53:02.445                             : en:~Movie~
00:57:10.627                             : en:Paparazzi
01:00:56.519                             : en:Run Devil Run
01:04:24.160                             : en:Reflection
01:08:22.665                             : en:~Movie~
01:13:36.779                             : en:Time Machine
01:17:34.883                             : en:All My Love Is For You
01:22:01.216                             : en:~Movie~
01:25:21.416                             : en:I‘m a Diamond
01:28:18.192                             : en:Express999
01:31:48.870                             : en:Genie
01:35:24.919                             : en:The Great Escape
01:38:34.308                             : en:Can‘t Take My Eyes Off You
01:42:22.002                             : en:~Movie~
01:45:44.538                             : en:My J
01:50:07.067                             : en:Kissing you
01:51:31.017                             : en:Way To Go
01:54:37.737                             : en:Gee
01:57:58.337                             : en:~Mc~
02:01:15.001                             : en:Not Alone
02:06:47.633                             : en:Beep Beep
02:10:12.237                             : en:Oh!
02:13:23.362                             : en:~Mc~
02:16:44.195                             : en:Stay Girls
02:20:00.358                             : en:Girls & Peace








Enlaces de Mega y Google Drive solo disponibles para Miembros VIP

Compra tu Membresía VIP y apoya a Club-HD!

ATENCIÓN! Tenemos TODO el material de Club-HD disponible por Mega y Google Drive, enlaces 100% activos y online hasta la fecha

Llévate tus cuentas Mega PRO III gratis con tu membresía VIP!
Todos los posts vivos con links de Mega y Google Drive.
Todo el material de Club-HD desbloqueado y sin publicidad.

Click Aquí para más información.



Para ver este contenido oculto, debes dar click en una de las siguientes reacciones : Like Like, Love Love, Haha Haha, Wow Wow, Sad Sad, Angry Angry

 
Última edición por un moderador:

Usuarios Que Están Viendo Este Tema (Total: 1, Miembros: 0, Invitados: 1)

Quién Leyó Este Tema (Total Miembros: 1)

Arriba