Godzilla (1998) m-720p Dual Latino-Inglés [Subt. Esp] (Ciencia ficción)

Maestro Revolver

Well-known member
Miembro del Staff
Administrador
Registro
9 Ago 2012
Mensajes
3.569
Reacciones
59.350
Puntos
113

Reputation:









TÍTULO ORIGINAL: Godzilla
AÑO: 1998
DURACIÓN: 138 min.
PAÍS: USA
DIRECTOR: Roland Emmerich
GUIÓN: Dean Devlin & Roland Emmerich (Historia: Ted Elliott, Terry Rossio, Dean Devlin, Roland Emmerich)
REPARTO: Matthew Broderick, Jean Reno, María Pitillo, Hank Azaria, Doug Savant, Kevin Dunn, Michael Lerner, Harry Shearer, Arabella Field, Vicki Lewis
PRODUCTORA: Columbia Pictures
GÉNERO: Ciencia ficción. Fantástico. Acción | Monstruos. Remake
http://www.imdb.com/title/tt0120685/





Las pruebas nucleares realizadas por los franceses en el Pacífico provocan la aparición en el océano de un gigantesco reptil mutante, que ha sido localizado tras atacar un barco de pesca japonés. Pero lo peor es que el monstruo es anfibio y saldrá del océano para dirigirse a Nueva York, en cuyas calles causará el pánico.
























La pelicula NO tiene ninguna marca... solo colocamos el nombre de esta web en las capturas






Código:
General
Format                           : Matroska
Format version                   : Version 2
File size                        : 3.06 GiB
Duration                         : 2h 18mn
Overall bit rate                 : 3 154 Kbps
Movie name                       : www.club-hd.com
Encoded date                     : UTC 2012-10-08 19:20:35
Writing application              : mkvmerge v4.4.0 ('Die Wiederkehr') built on Oct 31 2010 21:52:48
Writing library                  : libebml v1.0.0 + libmatroska v1.0.0

Video
ID                               : 1
Format                           : AVC
Format/Info                      : Advanced Video Codec
Format profile                   : High@L4.1
Format settings, CABAC           : Yes
Format settings, ReFrames        : 4 frames
Muxing mode                      : Header stripping
Codec ID                         : V_MPEG4/ISO/AVC
Duration                         : 2h 18mn
Bit rate                         : 2 515 Kbps
Width                            : 1 280 pixels
Height                           : 538 pixels
Display aspect ratio             : 2.40:1
Frame rate                       : 23.976 fps
Color space                      : YUV
Chroma subsampling               : 4:2:0
Bit depth                        : 8 bits
Scan type                        : Progressive
Bits/(Pixel*Frame)               : 0.152
Stream size                      : 2.44 GiB (80%)
Title                            : www.club-hd.com
Writing library                  : x264 core 68 r1183M f21daff
Language                         : English
Default                          : Yes
Forced                           : No

Audio #1
ID                               : 2
Format                           : AC-3
Format/Info                      : Audio Coding 3
Format profile                   : Dolby Digital
Mode extension                   : CM (complete main)
Muxing mode                      : Header stripping
Codec ID                         : A_AC3
Duration                         : 2h 18mn
Bit rate mode                    : Constant
Bit rate                         : 192 Kbps
Channel(s)                       : 2 channels
Channel positions                : Front: L R
Sampling rate                    : 48.0 KHz
Bit depth                        : 16 bits
Compression mode                 : Lossy
Delay relative to video          : 1s 700ms
Stream size                      : 191 MiB (6%)
Title                            : www.club-hd.com  >>  Latino
Language                         : Spanish
Default                          : Yes
Forced                           : No

Audio #2
ID                               : 3
Format                           : AC-3
Format/Info                      : Audio Coding 3
Mode extension                   : CM (complete main)
Muxing mode                      : Header stripping
Codec ID                         : A_AC3
Duration                         : 2h 18mn
Bit rate mode                    : Constant
Bit rate                         : 384 Kbps
Channel(s)                       : 6 channels
Channel positions                : Front: L C R, Side: L R, LFE
Sampling rate                    : 48.0 KHz
Bit depth                        : 16 bits
Compression mode                 : Lossy
Stream size                      : 381 MiB (12%)
Title                            : www.club-hd.com  >>  Inglés
Language                         : English
Default                          : No
Forced                           : No

Text
ID                               : 4
Format                           : UTF-8
Codec ID                         : S_TEXT/UTF8
Codec ID/Info                    : UTF-8 Plain Text
Language                         : Spanish
Default                          : No
Forced                           : No










Enlaces de Mega y Fireload solo disponibles para Miembros VIP

Compra tu Membresía VIP y apoya a Club-HD!

ATENCIÓN! Tenemos TODO el material de Club-HD disponible por Mega y Fireload, enlaces 100% activos y online hasta la fecha

Llévate tus cuentas Mega PRO II gratis con tu membresía VIP!
Todos los posts vivos con links de Mega y Fireload.
Todo el material de Club-HD desbloqueado y sin publicidad.

Click Aquí para más información.




Enlaces de Mega y Fireload solo disponibles para Miembros VIP

Compra tu Membresía VIP y apoya a Club-HD!

ATENCIÓN! Tenemos TODO el material de Club-HD disponible por Mega y Fireload, enlaces 100% activos y online hasta la fecha

Llévate tus cuentas Mega PRO II gratis con tu membresía VIP!
Todos los posts vivos con links de Mega y Fireload.
Todo el material de Club-HD desbloqueado y sin publicidad.

Click Aquí para más información.


Para ver este contenido oculto, debes dar click en una de las siguientes reacciones : Like Like, Love Love, Haha Haha, Wow Wow, Sad Sad, Angry Angry

 
Última edición:

armyfan

Well-known member
Registro
27 Ago 2012
Mensajes
1.184
Reacciones
156
Puntos
63

Reputation:

Grosoooooo!!!. La subiras en 1080p?. Asi se si tengo que esperar.
 

wolfaiki

Well-known member
Registro
28 Ago 2012
Mensajes
1.632
Reacciones
53
Puntos
48

Reputation:

Gracias. Un éxito palomero. Subirás las de ROBOCOP???
 

Maestro Revolver

Well-known member
Miembro del Staff
Administrador
Registro
9 Ago 2012
Mensajes
3.569
Reacciones
59.350
Puntos
113

Reputation:

Grosoooooo!!!. La subiras en 1080p?. Asi se si tengo que esperar.

En estos momentos estoy en eso, seguramente mañana la posteo con 12 gb


Edito: Salio 14 gb con DTS
 
Última edición:

JOVALD

New member
Registro
28 Ago 2012
Mensajes
30
Reacciones
1
Puntos
0
Edad
53

Reputation:

tremendo aporteeeeeeeeeeeeeeeeeeeeee...................
 

orcko5001

Active member
Registro
27 Ago 2012
Mensajes
288
Reacciones
35
Puntos
28
Edad
37

Reputation:

Desc_g_ muy buena peli para la coleccion saludos
 

eljumachi

Well-known member
Miembro VIP
Registro
27 Ago 2012
Mensajes
2.174
Reacciones
339
Puntos
83

Reputation:

uuuuy la quiero mil gracias R-21, poca memoria tendré que comprar otro disco duro, ni modo lo bueno se paga saludos.
 

Usuarios Que Están Viendo Este Tema (Total: 1, Miembros: 0, Invitados: 1)

Arriba