Gone in 60 Seconds (2000) 720p BDRip Dual Latino-Inglés [Subt. Esp] (Acción)

Maestro Revolver

Well-known member
Registro
9 Ago 2012
Mensajes
3.570
Reacciones
59.678
Puntos
113

Reputation:









TÍTULO ORIGINAL: Gone in 60 Seconds
AÑO: 2000
DURACIÓN: 117 min.
PAÍS: USA
DIRECTOR: Dominic Sena
GUIÓN: Scott Rosenberg
REPARTO: Nicolas Cage, Angelina Jolie, Robert Duvall, Giovanni Ribisi, Delroy Lindo, Will Patton, Christopher Eccleston, Chi McBride, Vinnie Jones, Grace Zabriskie, Bodhi Elfman, Arye Gross, Carmen Argenziano, John Carroll Lynch, Master P
PRODUCTORA: Touchstone Pictures / Jerry Bruckheimer Films
GÉNERO: Acción | Robos & Atracos. Automovilismo. Remake
: http://www.imdb.com/title/tt0187078/






Hace ya tiempo que Randall "Memphis" Raines ha dejado atrás su pasado delictivo. Pero cuando se entera de que su hermano está en peligro, para salvarlo se ve obligado a hacer lo que mejor sabe hacer: robar coches: 50 coches y un contrato. Fanático del automovilismo, Memphis es una leyenda en el negocio de robo de coches. No se le resiste ninguna cerradura, ninguna alarma.
























La pelicula NO tiene ninguna marca... solo colocamos el nombre de esta web en las capturas






Código:
General
Format                                   : Matroska
Format version                           : Version 2
File size                                : 4.43 GiB
Duration                                 : 1h 57mn
Overall bit rate                         : 5 374 Kbps
Movie name                               : www.club-hd.com
Encoded date                             : UTC 2013-04-11 00:23:11
Writing application                      : mkvmerge v5.7.0 ('The Whirlwind') built on Jul  8 2012 20:08:51
Writing library                          : libebml v1.2.3 + libmatroska v1.3.0

Video
ID                                       : 1
Format                                   : AVC
Format/Info                              : Advanced Video Codec
Format profile                           : High@L4.1
Format settings, CABAC                   : Yes
Format settings, ReFrames                : 3 frames
Codec ID                                 : V_MPEG4/ISO/AVC
Duration                                 : 1h 57mn
Bit rate                                 : 4 541 Kbps
Width                                    : 1 280 pixels
Height                                   : 544 pixels
Display aspect ratio                     : 2.35:1
Frame rate mode                          : Constant
Frame rate                               : 23.976 fps
Color space                              : YUV
Chroma subsampling                       : 4:2:0
Bit depth                                : 8 bits
Scan type                                : Progressive
Bits/(Pixel*Frame)                       : 0.272
Stream size                              : 3.65 GiB (83%)
Title                                    : www.club-hd.com
Writing library                          : x264 core 65 r1072M f586ba5
Language                                 : English
Default                                  : Yes
Forced                                   : No

Audio #1
ID                                       : 2
Format                                   : AC-3
Format/Info                              : Audio Coding 3
Mode extension                           : CM (complete main)
Format settings, Endianness              : Big
Codec ID                                 : A_AC3
Duration                                 : 1h 57mn
Bit rate mode                            : Constant
Bit rate                                 : 384 Kbps
Channel(s)                               : 6 channels
Channel positions                        : Front: L C R, Side: L R, LFE
Sampling rate                            : 48.0 KHz
Bit depth                                : 16 bits
Compression mode                         : Lossy
Stream size                              : 324 MiB (7%)
Title                                    : www.club-hd.com  >>  Latino
Language                                 : Spanish
Default                                  : Yes
Forced                                   : No

Audio #2
ID                                       : 3
Format                                   : AC-3
Format/Info                              : Audio Coding 3
Mode extension                           : CM (complete main)
Format settings, Endianness              : Big
Codec ID                                 : A_AC3
Duration                                 : 1h 57mn
Bit rate mode                            : Constant
Bit rate                                 : 448 Kbps
Channel(s)                               : 6 channels
Channel positions                        : Front: L C R, Side: L R, LFE
Sampling rate                            : 48.0 KHz
Bit depth                                : 16 bits
Compression mode                         : Lossy
Stream size                              : 378 MiB (8%)
Title                                    : www.club-hd.com  >>  Inglés
Language                                 : English
Default                                  : No
Forced                                   : No

Text
ID                                       : 4
Format                                   : UTF-8
Codec ID                                 : S_TEXT/UTF8
Codec ID/Info                            : UTF-8 Plain Text
Language                                 : Spanish
Default                                  : No
Forced                                   : No








Enlaces de Mega y Fireload solo disponibles para Miembros VIP

Compra tu Membresía VIP y apoya a Club-HD!

ATENCIÓN! Tenemos TODO el material de Club-HD disponible por Mega y Fireload, enlaces 100% activos y online hasta la fecha

Llévate tus cuentas Mega PRO II gratis con tu membresía VIP!
Todos los posts vivos con links de Mega y Fireload.
Todo el material de Club-HD desbloqueado y sin publicidad.

Click Aquí para más información.



Para ver este contenido oculto, debes dar click en una de las siguientes reacciones : Like Like, Love Love, Haha Haha, Wow Wow, Sad Sad, Angry Angry
 
Última edición por un moderador:

pocho-hd-2012

New member
Registro
31 Ago 2012
Mensajes
372
Reacciones
8
Puntos
0
Edad
40

Reputation:

Que buena peli y espero que suban algo como ong back o el shaolin y de todos modos graciassssssssssssssss
 

carlos610

Well-known member
Registro
28 Ago 2012
Mensajes
1.777
Reacciones
961
Puntos
113
Edad
39
Ubicación
angol, araucania

Reputation:

autos, si son de lujo a descargar ver la calidad de vehículos en 60 segundos gracias revolver21 por otro gran film
 

Ezze

Well-known member
Miembro del Staff
Súper Moderador
Registro
28 Ago 2012
Mensajes
1.664
Reacciones
1.799
Puntos
113
Ubicación
En la Torre de Observación

Reputation:

Espectacular película!!! :dplgar: Muchas gracias Revo!! :aplausos::aplausos: Para la videoteca ;) Saludos bye
 

edward1080

Well-known member
Registro
23 Nov 2012
Mensajes
1.013
Reacciones
137
Puntos
63
Edad
34

Reputation:

Muy buena esta película!, muchas gracias Genio!
 

Usuarios Que Están Viendo Este Tema (Total: 1, Miembros: 0, Invitados: 1)

Arriba