Gone With the Wind (1939) m-720p BDRip Dual Latino-Inglés [Subt. Esp] (Drama. Romance. Aventura)

Maestro Revolver

Well-known member
Miembro del Staff
Administrador
Registro
9 Ago 2012
Mensajes
3.567








TÍTULO ORIGINAL: Gone With the Wind
AÑO: 1939
PAÍS: USA
DIRECTOR: Victor Fleming, George Cukor, Sam Wood
GUIÓN: Sidney Howard, Oliver H.P. Garrett, Ben Hecht, Jo Swerling, John Van Druten (Novela: Margaret Mitchell)
REPARTO: Vivien Leigh, Clark Gable, Olivia de Havilland, Leslie Howard, Hattie McDaniel, Thomas Mitchell, Barbara O'Neil, Butterfly McQueen, Ona Munson, Ann Rutherford, Evelyn Keyes, Mickey Kuhn
PRODUCTORA: Selznick International Pictures / Metro-Goldwyn-Mayer (MGM)
GÉNERO: Drama. Romance. Aventuras | Guerra de Secesión. Siglo XIX. Drama romántico. Drama sureño
: http://www.imdb.com/title/tt0031381/

Premios: 1939: 8 (+1 honorario) Oscars, incluyendo mejor película y actriz (Leigh). 13 nominaciones
1939: Círculo de Críticos de Nueva York: Mejor actriz (Vivien Leigh)






Georgia, 1861. En la elegante mansión sureña de Tara, vive Scarlett O'Hara (Vivien Leigh), la joven más bella, caprichosa y egoísta de la región. Ella suspira por el amor de Ashley (Leslie Howard), pero él está prometido con su prima, la dulce y bondadosa Melanie (Olivia de Havilland). En la última fiesta, antes del estallido de la Guerra de Secesión (1861-1865), Scarlett conoce al simpático, cínico y apuesto Rhett Butler (Clark Gable), un vividor arrogante y aventurero, que sólo piensa en sí mismo y que no tiene ninguna intención de participar en la contienda. Lo único que él desea es hacerse rico y conquistar el corazón de la hermosa Scarlett.
























La pelicula NO tiene ninguna marca... solo colocamos el nombre de esta web en las capturas






Código:
General
Format                                   : Matroska
Format version                           : Version 2
File size                                : 5.90 GiB
Duration                                 : 3h 53mn
Overall bit rate                         : 3 619 Kbps
Movie name                               : www.club-hd.com
Encoded date                             : UTC 2013-05-29 00:30:10
Writing application                      : mkvmerge v5.7.0 ('The Whirlwind') built on Jul  8 2012 20:08:51
Writing library                          : libebml v1.2.3 + libmatroska v1.3.0

Video
ID                                       : 1
Format                                   : AVC
Format/Info                              : Advanced Video Codec
Format profile                           : High@L4.1
Format settings, CABAC                   : Yes
Format settings, ReFrames                : 8 frames
Codec ID                                 : V_MPEG4/ISO/AVC
Duration                                 : 3h 53mn
Bit rate                                 : 3 000 Kbps
Width                                    : 976 pixels
Height                                   : 704 pixels
Display aspect ratio                     : 4:3
Original display aspect ratio            : 1.370
Frame rate mode                          : Constant
Frame rate                               : 23.976 fps
Color space                              : YUV
Chroma subsampling                       : 4:2:0
Bit depth                                : 8 bits
Scan type                                : Progressive
Bits/(Pixel*Frame)                       : 0.182
Stream size                              : 4.74 GiB (80%)
Title                                    : www.club-hd.com
Writing library                          : x264 core 120
Language                                 : English
Default                                  : Yes
Forced                                   : No
Color primaries                          : BT.709
Transfer characteristics                 : BT.709
Matrix coefficients                      : BT.709

Audio #1
ID                                       : 2
Format                                   : AC-3
Format/Info                              : Audio Coding 3
Mode extension                           : CM (complete main)
Format settings, Endianness              : Big
Codec ID                                 : A_AC3
Duration                                 : 3h 53mn
Bit rate mode                            : Constant
Bit rate                                 : 192 Kbps
Channel(s)                               : 2 channels
Channel positions                        : Front: L R
Sampling rate                            : 48.0 KHz
Bit depth                                : 16 bits
Compression mode                         : Lossy
Stream size                              : 320 MiB (5%)
Title                                    : Latino
Language                                 : Spanish
Default                                  : Yes
Forced                                   : No

Audio #2
ID                                       : 3
Format                                   : AC-3
Format/Info                              : Audio Coding 3
Mode extension                           : CM (complete main)
Format settings, Endianness              : Big
Codec ID                                 : A_AC3
Duration                                 : 3h 53mn
Bit rate mode                            : Constant
Bit rate                                 : 448 Kbps
Channel(s)                               : 6 channels
Channel positions                        : Front: L C R, Side: L R, LFE
Sampling rate                            : 48.0 KHz
Bit depth                                : 16 bits
Compression mode                         : Lossy
Stream size                              : 747 MiB (12%)
Title                                    : Inglés
Language                                 : English
Default                                  : No
Forced                                   : No

Text
ID                                       : 4
Format                                   : UTF-8
Codec ID                                 : S_TEXT/UTF8
Codec ID/Info                            : UTF-8 Plain Text
Language                                 : Spanish
Default                                  : No
Forced                                   : No








Enlaces de Mega y Google Drive solo disponibles para Miembros VIP

Compra tu Membresía VIP y apoya a Club-HD!

ATENCIÓN! Tenemos TODO el material de Club-HD disponible por Mega y Google Drive, enlaces 100% activos y online hasta la fecha

Llévate tus cuentas Mega PRO III gratis con tu membresía VIP!
Todos los posts vivos con links de Mega y Google Drive.
Todo el material de Club-HD desbloqueado y sin publicidad.

Click Aquí para más información.



Enlaces de Mega y Google Drive solo disponibles para Miembros VIP

Compra tu Membresía VIP y apoya a Club-HD!

ATENCIÓN! Tenemos TODO el material de Club-HD disponible por Mega y Google Drive, enlaces 100% activos y online hasta la fecha

Llévate tus cuentas Mega PRO III gratis con tu membresía VIP!
Todos los posts vivos con links de Mega y Google Drive.
Todo el material de Club-HD desbloqueado y sin publicidad.

Click Aquí para más información.


Para ver este contenido oculto, debes dar click en una de las siguientes reacciones : Like Like, Love Love, Haha Haha, Wow Wow, Sad Sad, Angry Angry

 
Última edición por un moderador:

Claudia

New member
Súper Moderador
Registro
28 Ago 2012
Mensajes
2.282
Edad
49
Ubicación
EN MI MUNDO REAL...
Una de las movies mas premiadas por la Academia!!!!, no puede faltar en la casa de los amantes del cine. EXCELENCIA SEÑORES.
:aplausos::LXR::LXR::LXR::LXR::dplgar:SOLO AQUI, DE LA MANO DEL MEJOR!!!...MUCHAS GRACIAS MASTER!!!!!

Y gracias al user Kinkiyi quien la solicito!!!
Pl4yb0y
 

Nosferatu

Well-known member
Miembro del Staff
Súper Moderador
Miembro VIP
Registro
31 Ago 2012
Mensajes
2.275
Edad
45
Ubicación
Welcome to Hell!!
Gracias por pensar en todos y traernos esta versión mas liviana.:aplausos::aplausos::aplausos:

Gracias R21!!!
 

Usuarios Que Están Viendo Este Tema (Total: 1, Miembros: 0, Invitados: 1)

Quién Leyó Este Tema (Total Miembros: 2)

Arriba