Good Will Hunting (1997) m-720p BDRip Dual Latino-Inglés [Subt. Esp] (Drama. Romance)

Maestro Revolver

Well-known member
Miembro del Staff
Administrador
Registro
9 Ago 2012
Mensajes
3.567








TÍTULO ORIGINAL: Good Will Hunting
AÑO: 1997
DURACIÓN: 126 min.
PAÍS: USA
DIRECTOR: Gus Van Sant
GUIÓN: Matt Damon, Ben Affleck
REPARTO: Matt Damon, Robin Williams, Minnie Driver, Ben Affleck, Stellan Skarsgård, Casey Affleck, Cole Hauser, Philip Williams, John Mighton, Rachel Majorowski, Colleen McCauley, Matt Mercier, Richard Fitzpatrick
PRODUCTORA: Miramax International presenta una producción Lawrence Bender
GÉNERO: Drama. Romance | Enseñanza. Amistad
: http://www.imdb.com/title/tt0119217/

Premios: 1997: 2 Oscars: Mejor guión original, actor secundario (Robin Williams). 9 Nominaciones
1997: Globo de Oro: Mejor guión. 4 nominaciones
1997: National Board of Review: Premios Especial por su aportación (Damon & Affleck)
1997: Screen Actors Guild: Mejor Actor de Reparto (Robin Williams) 4 nominaciones
1997: 2 Critics' Choice Awards: Mejor guión original, artista revelación (Damon)
1998: Festival de Berlín: Oso de Plata - Logro individual sobresaliente (Matt Damon)






Will es un joven rebelde con una inteligencia asombrosa, especialmente para las matemáticas. El descubrimiento de su talento por parte de los profesores le planteará un dilema: seguir con su vida de siempre -un trabajo fácil, buenos amigos, muchas cervezas y alguna bronca- o aprovechar sus grandes cualidades intelectuales en alguna universidad. Sólo los consejos de un solitario y bohemio profesor le ayudarán a decidirse.
























La pelicula NO tiene ninguna marca... solo colocamos el nombre de esta web en las capturas






Código:
General
Format                                   : Matroska
Format version                           : Version 2
File size                                : 2.97 GiB
Duration                                 : 2h 6mn
Overall bit rate                         : 3 363 Kbps
Movie name                               : www.club-hd.com
Encoded date                             : UTC 2013-09-13 04:31:29
Writing application                      : mkvmerge v5.7.0 ('The Whirlwind') built on Jul  8 2012 20:08:51
Writing library                          : libebml v1.2.3 + libmatroska v1.3.0

Video
ID                                       : 1
Format                                   : AVC
Format/Info                              : Advanced Video Codec
Format profile                           : High@L4.1
Format settings, CABAC                   : Yes
Format settings, ReFrames                : 9 frames
Codec ID                                 : V_MPEG4/ISO/AVC
Duration                                 : 2h 6mn
Bit rate                                 : 2 721 Kbps
Width                                    : 1 280 pixels
Height                                   : 694 pixels
Display aspect ratio                     : 1.85:1
Frame rate mode                          : Constant
Frame rate                               : 23.976 fps
Color space                              : YUV
Chroma subsampling                       : 4:2:0
Bit depth                                : 8 bits
Scan type                                : Progressive
Bits/(Pixel*Frame)                       : 0.128
Stream size                              : 2.35 GiB (79%)
Title                                    : www.club-hd.com
Writing library                          : x264 core 130 r2273 b3065e6
Language                                 : English
Default                                  : Yes
Forced                                   : No

Audio #1
ID                                       : 2
Format                                   : AC-3
Format/Info                              : Audio Coding 3
Mode extension                           : CM (complete main)
Format settings, Endianness              : Big
Codec ID                                 : A_AC3
Duration                                 : 2h 6mn
Bit rate mode                            : Constant
Bit rate                                 : 192 Kbps
Channel(s)                               : 2 channels
Channel positions                        : Front: L R
Sampling rate                            : 48.0 KHz
Bit depth                                : 16 bits
Compression mode                         : Lossy
Delay relative to video                  : 1s 100ms
Stream size                              : 174 MiB (6%)
Title                                    : www.club-hd.com  >> Latino
Language                                 : Spanish
Default                                  : Yes
Forced                                   : No

Audio #2
ID                                       : 3
Format                                   : AC-3
Format/Info                              : Audio Coding 3
Mode extension                           : CM (complete main)
Format settings, Endianness              : Big
Codec ID                                 : A_AC3
Duration                                 : 2h 6mn
Bit rate mode                            : Constant
Bit rate                                 : 448 Kbps
Channel(s)                               : 6 channels
Channel positions                        : Front: L C R, Side: L R, LFE
Sampling rate                            : 48.0 KHz
Bit depth                                : 16 bits
Compression mode                         : Lossy
Stream size                              : 406 MiB (13%)
Title                                    : www.club-hd.com  >>  Inglés
Language                                 : English
Default                                  : No
Forced                                   : No

Text
ID                                       : 4
Format                                   : UTF-8
Codec ID                                 : S_TEXT/UTF8
Codec ID/Info                            : UTF-8 Plain Text
Language                                 : Spanish
Default                                  : No
Forced                                   : No

Menu
00:00:00.000                             : en:Chapter 1
00:09:43.499                             : en:Chapter 2
00:15:46.403                             : en:Chapter 3
00:28:43.388                             : en:Chapter 4
00:37:14.982                             : en:Chapter 5
00:52:44.411                             : en:Chapter 6
00:59:01.329                             : en:Chapter 7
01:03:04.572                             : en:Chapter 8
01:08:22.348                             : en:Chapter 9
01:14:25.043                             : en:Chapter 10
01:17:54.878                             : en:Chapter 11
01:22:44.584                             : en:Chapter 12
01:43:49.806                             : en:Chapter 13
01:52:34.706                             : en:Chapter 14
01:54:44.836                             : en:Chapter 15
01:58:18.049                             : en:Chapter 16








Enlaces de Mega y Google Drive solo disponibles para Miembros VIP

Compra tu Membresía VIP y apoya a Club-HD!

ATENCIÓN! Tenemos TODO el material de Club-HD disponible por Mega y Google Drive, enlaces 100% activos y online hasta la fecha

Llévate tus cuentas Mega PRO III gratis con tu membresía VIP!
Todos los posts vivos con links de Mega y Google Drive.
Todo el material de Club-HD desbloqueado y sin publicidad.

Click Aquí para más información.



Para ver este contenido oculto, debes dar click en una de las siguientes reacciones : Like Like, Love Love, Haha Haha, Wow Wow, Sad Sad, Angry Angry
 
Última edición por un moderador:

Usuarios Que Están Viendo Este Tema (Total: 1, Miembros: 0, Invitados: 1)

Quién Leyó Este Tema (Total Miembros: 4)

Arriba