• Este aviso va dirigido a todos los nuevos miembros recien llegados a Club-HD. Les recordamos que la direccion URL de este sitio web es , asi que deben acceder únicamente por esta URL. Sean todos bienvenidos al Club!

Hancock UNRATED (2008) 1080p BDRip HEVC Dual Latino-Inglés [Subt.Esp] (Fantástico)

Klass

DARK
Uploader
Registrado
27 Sep 2015
Mensajes
750
Puntos de reacción
6,355
Puntos
93


Título original: Hancock
Latino: Hancock
Año: 2008
Duración: 92 min
País:
Estados Unidos
Director: Peter Berg
Reparto: Will Smith, Charlize Theron, Jason Bateman, Eddie Marsan, Jae Head, David Mattey, Maetrix Fitten, Thomas Lennon, Johnny Galecki, Hayley Marie Norman, Akiva Goldsman, Michael Mann, Brad Leland, Trieu Tran, Darrell Foster, Daeg Faerch
Productora: Columbia Pictures / Forward Pass / Overbrook Entertainment
Genero: Fantástico. Comedia. Acción | Superhéroes

Sinopsis:
Hancock (Will Smith), una especie de héroe bastante impopular, se siente insatisfecho, atormentado e incomprendido. Con sus acciones heroicas, consigue salvar muchas vidas, pero, al mismo tiempo, provoca auténticas catástrofes. Aunque, en general, la población le está agradecida, la mayoría de los habitantes de Los Ángeles no puede soportarlo. Un día en que le salva la vida a Ray Embrey (Jason Bateman), un alto ejecutivo de una empresa de relaciones públicas, Hancock se da cuenta de que es un ser vulnerable.

6.4/10












Código:
Format                                   : Matroska
Format version                           : Version 4
File size                                : 3.50 GiB
Duration                                 : 1 h 42 min
Overall bit rate                         : 4 897 kb/s
Movie name                               : Hancock (2008) HEVC Latino CHD
Encoded date                             : UTC 2019-09-08 17:39:17
Writing application                      : mkvmerge v27.0.0 ('Metropolis') 64-bit
Writing library                          : libebml v1.3.6 + libmatroska v1.4.9
Uploader                                 : Klass
Web                                      : www.club-hd.com / www.latinouhd.com

Video
ID                                       : 4
Format                                   : HEVC
Format/Info                              : High Efficiency Video Coding
Format profile                           : Main 10@L4@Main
Codec ID                                 : V_MPEGH/ISO/HEVC
Duration                                 : 1 h 42 min
Bit rate                                 : 3 999 kb/s
Width                                    : 1 920 pixels
Height                                   : 800 pixels
Display aspect ratio                     : 2.40:1
Frame rate mode                          : Constant
Frame rate                               : 23.976 (24000/1001) FPS
Color space                              : YUV
Chroma subsampling                       : 4:2:0
Bit depth                                : 10 bits
Bits/(Pixel*Frame)                       : 0.109
Stream size                              : 2.86 GiB (82%)
Writing library                          : x265 2.5+14-2718cb5dd67f:[Windows][GCC 7.1.0][64 bit] 10bit
Encoding settings                        : cpuid=1173503 / frame-threads=3 / numa-pools=8 / wpp / no-pmode / no-pme / no-psnr / no-ssim / log-level=2 / input-csp=1 / input-res=1920x800 / interlace=0 / total-frames=147077 / level-idc=0 / high-tier=1 / uhd-bd=0 / ref=4 / no-allow-non-conformance / no-repeat-headers / annexb / no-aud / no-hrd / info / hash=0 / no-temporal-layers / open-gop / min-keyint=23 / keyint=250 / bframes=4 / b-adapt=2 / b-pyramid / bframe-bias=0 / rc-lookahead=25 / lookahead-slices=4 / scenecut=40 / no-intra-refresh / ctu=64 / min-cu-size=8 / rect / no-amp / max-tu-size=32 / tu-inter-depth=1 / tu-intra-depth=1 / limit-tu=0 / rdoq-level=2 / dynamic-rd=0.00 / no-ssim-rd / signhide / no-tskip / nr-intra=0 / nr-inter=0 / no-constrained-intra / strong-intra-smoothing / max-merge=3 / limit-refs=3 / limit-modes / me=3 / subme=3 / merange=57 / temporal-mvp / weightp / no-weightb / no-analyze-src-pics / deblock=0:0 / sao / no-sao-non-deblock / rd=4 / no-early-skip / rskip / no-fast-intra / no-tskip-fast / no-cu-lossless / no-b-intra / no-splitrd-skip / rdpenalty=0 / psy-rd=2.00 / psy-rdoq=1.00 / no-rd-refine / analysis-reuse-mode=0 / no-lossless / cbqpoffs=0 / crqpoffs=0 / rc=abr / bitrate=4000 / qcomp=0.60 / qpstep=4 / stats-write=0 / stats-read=2 / cplxblur=20.0 / qblur=0.5 / ipratio=1.40 / pbratio=1.30 / aq-mode=2 / aq-strength=1.00 / cutree / zone-count=0 / no-strict-cbr / qg-size=32 / no-rc-grain / qpmax=69 / qpmin=0 / no-const-vbv / sar=0 / overscan=0 / videoformat=5 / range=0 / colorprim=2 / transfer=2 / colormatrix=2 / chromaloc=0 / display-window=0 / max-cll=0,0 / min-luma=0 / max-luma=1023 / log2-max-poc-lsb=8 / vui-timing-info / vui-hrd-info / slices=1 / opt-qp-pps / opt-ref-list-length-pps / no-multi-pass-opt-rps / scenecut-bias=0.05 / no-opt-cu-delta-qp / no-aq-motion / no-hdr / no-hdr-opt / no-dhdr10-opt / analysis-reuse-level=5 / scale-factor=0 / refine-intra=0 / refine-inter=0 / refine-mv=0 / no-limit-sao / ctu-info=0
Default                                  : Yes
Forced                                   : No

Audio #1
ID                                       : 1
Format                                   : AC-3
Format/Info                              : Audio Coding 3
Commercial name                          : Dolby Digital
Codec ID                                 : A_AC3
Duration                                 : 1 h 42 min
Bit rate mode                            : Constant
Bit rate                                 : 448 kb/s
Channel(s)                               : 6 channels
Channel layout                           : L R C LFE Ls Rs
Sampling rate                            : 48.0 kHz
Frame rate                               : 31.250 FPS (1536 SPF)
Bit depth                                : 16 bits
Compression mode                         : Lossy
Stream size                              : 328 MiB (9%)
Title                                    : Latino
Language                                 : Latin
Service kind                             : Complete Main
Default                                  : Yes
Forced                                   : No

Audio #2
ID                                       : 2
Format                                   : AC-3
Format/Info                              : Audio Coding 3
Commercial name                          : Dolby Digital
Codec ID                                 : A_AC3
Duration                                 : 1 h 42 min
Bit rate mode                            : Constant
Bit rate                                 : 448 kb/s
Channel(s)                               : 6 channels
Channel layout                           : L R C LFE Ls Rs
Sampling rate                            : 48.0 kHz
Frame rate                               : 31.250 FPS (1536 SPF)
Bit depth                                : 16 bits
Compression mode                         : Lossy
Stream size                              : 328 MiB (9%)
Title                                    : Inglés
Language                                 : English
Service kind                             : Complete Main
Default                                  : No
Forced                                   : No

Text
ID                                       : 3
Format                                   : UTF-8
Codec ID                                 : S_TEXT/UTF8
Codec ID/Info                            : UTF-8 Plain Text
Duration                                 : 1 h 35 min
Bit rate                                 : 52 b/s
Count of elements                        : 1121
Stream size                              : 36.7 KiB (0%)
Title                                    : Latino
Language                                 : Latin
Default                                  : No
Forced                                   : No

Menu
00:00:00.000                             : en:Chapter 01
00:11:45.871                             : en:Chapter 02
00:17:26.503                             : en:Chapter 03
00:23:55.267                             : en:Chapter 04
00:28:24.953                             : en:Chapter 05
00:35:40.555                             : en:Chapter 06
00:42:44.103                             : en:Chapter 07
00:47:00.526                             : en:Chapter 08
00:49:54.992                             : en:Chapter 09
00:54:07.786                             : en:Chapter 10
01:02:59.942                             : en:Chapter 11
01:08:20.387                             : en:Chapter 12
01:15:13.300                             : en:Chapter 13
01:21:32.429                             : en:Chapter 14
01:25:35.130                             : en:Chapter 15
01:31:02.415                             : en:Chapter 16

Contraseña: [B][SIZE=6]www.club-hd.com[/SIZE][/B]



Enlaces de Mega y Google Drive solo disponibles para Miembros VIP

Compra tu Membresía VIP y apoya a Club-HD!

ATENCIÓN! Tenemos TODO el material de Club-HD disponible por Mega y Google Drive, enlaces 100% activos y online hasta la fecha

Llévate tus cuentas Mega PRO II gratis con tu membresía VIP!
Todos los posts vivos con links de Mega y Google Drive.
Todo el material de Club-HD desbloqueado y sin publicidad.

Click Aquí para más información.


Enlaces de Mega y Google Drive solo disponibles para Miembros VIP

Compra tu Membresía VIP y apoya a Club-HD!

ATENCIÓN! Tenemos TODO el material de Club-HD disponible por Mega y Google Drive, enlaces 100% activos y online hasta la fecha

Llévate tus cuentas Mega PRO II gratis con tu membresía VIP!
Todos los posts vivos con links de Mega y Google Drive.
Todo el material de Club-HD desbloqueado y sin publicidad.

Click Aquí para más información.


Para ver este contenido oculto, debes dar click en una de las siguientes reacciones: Like Like, Love Love, Haha Haha, Wow Wow, Sad Sad, Angry Angry


Para ver este contenido oculto, debes dar click en una de las siguientes reacciones: Like Like, Love Love, Haha Haha, Wow Wow, Sad Sad, Angry Angry
[/CENTER]
 
Última edición:

Josiba

Well-known member
Registrado
27 Ago 2012
Mensajes
5,751
Puntos de reacción
266
Puntos
83
Edad
51

cripp

Well-known member
Registrado
27 Ago 2012
Mensajes
8,128
Puntos de reacción
481
Puntos
113
Gracias por compartir
 

bielo

Well-known member
Miembro VIP
Registrado
27 Ago 2012
Mensajes
2,851
Puntos de reacción
63
Puntos
48
Hola, tengo un problema, las dos pistas son de audio español, falta la pista de inglés, ¿se puede corregir por favor? ¿alguien más puede verificarlo? Gracias, hasta pronto.
 

Klass

DARK
Uploader
Registrado
27 Sep 2015
Mensajes
750
Puntos de reacción
6,355
Puntos
93
Hola, tengo un problema, las dos pistas son de audio español, falta la pista de inglés, ¿se puede corregir por favor? ¿alguien más puede verificarlo? Gracias, hasta pronto.
Gracias efectivamente el 2 igual es latino a la noche lo veremos ..
 

Usuarios Que Están Viendo Este Tema (Total: 1, Miembros: 0, Invitados: 1)

Quien Leyó Este Tema (Total Miembros: 4)

Arriba