• Este aviso va dirigido a todos los nuevos miembros recien llegados a Club-HD. Les recordamos que la direccion URL de este sitio web es , asi que deben acceder únicamente por esta URL. Sean todos bienvenidos al Club!

Harry Potter and the Deathly Hallows: Part I (2010) [Open Matte] 1080p AMZN WEB-DL Dual Latino-Inglés [Subt. Esp]

Flaco

Well-known member
Miembro del Staff
Moderador
Uploader
Registrado
25 May 2015
Mensajes
593
Puntos de reacción
2,783
Puntos
93
Ubicación
Lima, Perú





Título original: Harry Potter and the Deathly Hallows: Part I
Año: 2010
Duración: 146 min.
País:
Reino Unido
Dirección: David Yates
Guion: Steve Kloves (Novela: J.K. Rowling)
Música: Alexandre Desplat
Fotografía: Eduardo Serra
Reparto: Daniel Radcliffe, Emma Watson, Rupert Grint, Alan Rickman, Ralph Fiennes, Bill Nighy, Helena Bonham Carter, Rhys Ifans, Michael Gambon, Jason Isaacs, Brendan Gleeson, David Thewlis, James Phelps, Oliver Phelps, Julie Walters, Robbie Coltrane, Helen McCrory, John Hurt, Natalia Tena, Imelda Staunton, Miranda Richardson, Domhnall Gleeson, Jamie Campbell Bower, Richard Griffiths, Fiona Shaw, Timothy Spall, Mark Williams, Bonnie Wright, Matthew Lewis, Tom Felton, Evanna Lynch, Warwick Davis, Michelle Fairley, Clémence Poésy, Peter Mullan, Nick Moran
Productora: Warner Bros., Heyday Films
Género: Fantástico. Aventuras. Drama | Magia. Young Adult. Secuela
Premios:
2010: Oscar: 2 nominaciones: dirección artística, efectos visuales
2010: BAFTA: 2 nominaciones: mejores efectos visuales, mejor maquillaje/peluquería
2010: Satellite Awards: 2 nominaciones: mejor fotografía y mejor BSO
2010: 2 Nominaciones Critics' Choice Awards: Mejor maquillaje y mejor efecto visual

Harry Potter and the Deathly Hallows: Part I (2010)





Primera parte de la adaptación al cine del último libro de la saga Harry Potter. Es una continuación de la historia recogida en "El misterio del príncipe". Una misión casi imposible cae sobre los hombros de Harry: deberá encontrar y destruir a los últimos horrocruxes para poner fin al reinado de Lord Voldemort. En el episodio final de la saga, el joven hechicero de 17 años emprende con sus amigos Hermione Granger y Ron Weasley un peligroso viaje por Inglaterra para encontrar los objetos que contienen los fragmentos del alma del Señor Tenebroso, que son los que garantizan su longevidad. Pero la tarea no será fácil, pues el poder del lado oscuro crece cada vez más, y las más firmes lealtades serán puestas a prueba. Harry deberá usar todos los conocimientos que ha adquirido gracias a Dumbledore para enfrentarse a su enemigo y encontrar la forma de sobrevivir a esta última aventura.​
























Código:
General
Complete name                            : Harry Potter and the Deathly Hallows Part I (2010) [Open Matte] 1080p AMZN WEB-DL Dual Latino-Inglés [Subt. Esp].mkv
Format                                   : Matroska
Format version                           : Version 4
File size                                : 10.8 GiB
Duration                                 : 2 h 26 min
Overall bit rate mode                    : Variable
Overall bit rate                         : 10.6 Mb/s
Encoded date                             : UTC 2020-07-28 20:37:44
Writing application                      : mkvmerge v48.0.0 ('Fortress Around Your Heart') 64-bit
Writing library                          : libebml v1.4.0 + libmatroska v1.6.0

Video
ID                                       : 1
Format                                   : AVC
Format/Info                              : Advanced Video Codec
Format profile                           : High@L4
Format settings                          : CABAC / 4 Ref Frames
Format settings, CABAC                   : Yes
Format settings, Reference frames        : 4 frames
Codec ID                                 : V_MPEG4/ISO/AVC
Duration                                 : 2 h 26 min
Bit rate mode                            : Variable
Bit rate                                 : 9 320 kb/s
Maximum bit rate                         : 15.0 Mb/s
Width                                    : 1 920 pixels
Height                                   : 1 080 pixels
Display aspect ratio                     : 16:9
Frame rate mode                          : Constant
Frame rate                               : 23.976 (24000/1001) FPS
Color space                              : YUV
Chroma subsampling                       : 4:2:0
Bit depth                                : 8 bits
Scan type                                : Progressive
Bits/(Pixel*Frame)                       : 0.187
Stream size                              : 9.52 GiB (88%)
Title                                    : Harry Potter and the Deathly Hallows Part I (2010) [Open Matte] 1080p AMZN WEB-DL Dual Latino-Inglés [Subt. Esp]
Language                                 : English
Default                                  : Yes
Forced                                   : No
Color range                              : Limited
Color primaries                          : BT.709
Transfer characteristics                 : BT.709
Matrix coefficients                      : BT.709

Audio #1
ID                                       : 2
Format                                   : AC-3
Format/Info                              : Audio Coding 3
Commercial name                          : Dolby Digital
Codec ID                                 : A_AC3
Duration                                 : 2 h 26 min
Bit rate mode                            : Constant
Bit rate                                 : 640 kb/s
Channel(s)                               : 6 channels
Channel layout                           : L R C LFE Ls Rs
Sampling rate                            : 48.0 kHz
Frame rate                               : 31.250 FPS (1536 SPF)
Compression mode                         : Lossy
Stream size                              : 669 MiB (6%)
Title                                    : Español Latino AC3 5.1 - 640 Kbps (Blu-ray)
Language                                 : Spanish
Service kind                             : Complete Main
Default                                  : Yes
Forced                                   : No

Audio #2
ID                                       : 3
Format                                   : E-AC-3
Format/Info                              : Enhanced AC-3
Commercial name                          : Dolby Digital Plus
Codec ID                                 : A_EAC3
Duration                                 : 2 h 26 min
Bit rate mode                            : Constant
Bit rate                                 : 640 kb/s
Channel(s)                               : 6 channels
Channel layout                           : L R C LFE Ls Rs
Sampling rate                            : 48.0 kHz
Frame rate                               : 31.250 FPS (1536 SPF)
Compression mode                         : Lossy
Stream size                              : 669 MiB (6%)
Title                                    : Inglés EAC3 5.1 - 640 Kbps (Original - Amazon)
Language                                 : English
Service kind                             : Complete Main
Default                                  : No
Forced                                   : No

Text
ID                                       : 4
Format                                   : UTF-8
Codec ID                                 : S_TEXT/UTF8
Codec ID/Info                            : UTF-8 Plain Text
Duration                                 : 2 h 17 min
Bit rate                                 : 40 b/s
Count of elements                        : 1243
Stream size                              : 40.3 KiB (0%)
Title                                    : Subtítulo Español Latino Completo - SRT
Language                                 : Spanish
Default                                  : No
Forced                                   : No






Todos los links son Intercambiables!


Enlaces de Mega y Google Drive solo disponibles para Miembros VIP

Compra tu Membresía VIP y apoya a Club-HD!

ATENCIÓN! Tenemos TODO el material de Club-HD disponible por Mega y Google Drive, enlaces 100% activos y online hasta la fecha

Llévate tus cuentas Mega PRO II gratis con tu membresía VIP!
Todos los posts vivos con links de Mega y Google Drive.
Todo el material de Club-HD desbloqueado y sin publicidad.

Click Aquí para más información.


Disponible
⭐¡VER ONLINE y DESCARGAR 1 LINK!⭐


Enlaces de Mega y Google Drive solo disponibles para Miembros VIP

Compra tu Membresía VIP y apoya a Club-HD!

ATENCIÓN! Tenemos TODO el material de Club-HD disponible por Mega y Google Drive, enlaces 100% activos y online hasta la fecha

Llévate tus cuentas Mega PRO II gratis con tu membresía VIP!
Todos los posts vivos con links de Mega y Google Drive.
Todo el material de Club-HD desbloqueado y sin publicidad.

Click Aquí para más información.

Para ver este contenido oculto, debes dar click en una de las siguientes reacciones: Like Like, Love Love, Haha Haha, Wow Wow, Sad Sad, Angry Angry

Para ver este contenido oculto, debes dar click en una de las siguientes reacciones: Like Like, Love Love, Haha Haha, Wow Wow, Sad Sad, Angry Angry
 

phillip64

Active member
Registrado
29 Ago 2012
Mensajes
679
Puntos de reacción
89
Puntos
28
Excelente amigos, muchas gracias por completar la saga en esta calidad, son lo mejor! ;)
 

Usuarios Que Están Viendo Este Tema (Total: 1, Miembros: 0, Invitados: 1)

Arriba