• Este aviso va dirigido a todos los nuevos miembros recien llegados a Club-HD. Les recordamos que la direccion URL de este sitio web es , asi que deben acceder únicamente por esta URL. Sean todos bienvenidos al Club!

Hasta que la boda nos separe (2020) 1080p BDRip Castellano [Subt. Ing] (Comedia. Romance)

Dante Inferno

🔥Dante Inferno🔥
Miembro del Staff
Moderador
Uploader
Registrado
24 May 2016
Mensajes
607
Puntos de reacción
12,335
Puntos
93
Ubicación
Argentina
Sitio web
club-hd.com



Otro títulos: Organizadora de Bodas | Boda sin plan | The Wedding Unplanner


SINOPSIS

Marina es una treintañera que se gana la vida organizando bodas. A diferencia de sus clientes, ella disfruta de una vida sin ataduras ni compromisos, hasta que una noche conoce a Carlos, un affaire más para ella y un momento de debilidad para él. Porque él tiene novia: Alexia, una joven perfecta y amiga de infancia de Marina. Cuando Alexia descubre la tarjeta de visita de Marina entre las cosas de Carlos, lo interpreta como una propuesta de matrimonio y dice que sí de inmediato.

MÁS INFORMACIÓN




TRAILER



CAPTURAS






MEDIAINFO

Código:
General
Complete name                            : Hasta que la boda nos separe (2020) 1080p BDRip Castellano [Subt. Ing].mkv
Format                                   : Matroska
Format version                           : Version 4
File size                                : 5.54 GiB
Duration                                 : 1 h 50 min
Overall bit rate                         : 7 171 kb/s
Movie name                               : Hasta que la boda nos separe (2020) 1080p BDRip Castellano [Subt. Ing] [www.club-hd.com]
Encoded date                             : UTC 2020-07-08 22:04:54
Writing application                      : mkvmerge v27.0.0 ('Metropolis') 64-bit
Writing library                          : libebml v1.3.6 + libmatroska v1.4.9

Video
ID                                       : 1
Format                                   : AVC
Format/Info                              : Advanced Video Codec
Format profile                           : High@L4.1
Format settings                          : CABAC / 5 Ref Frames
Format settings, CABAC                   : Yes
Format settings, Reference frames        : 5 frames
Codec ID                                 : V_MPEG4/ISO/AVC
Duration                                 : 1 h 50 min
Bit rate                                 : 5 019 kb/s
Width                                    : 1 920 pixels
Height                                   : 808 pixels
Display aspect ratio                     : 2.40:1
Frame rate mode                          : Constant
Frame rate                               : 24.000 FPS
Color space                              : YUV
Chroma subsampling                       : 4:2:0
Bit depth                                : 8 bits
Scan type                                : Progressive
Bits/(Pixel*Frame)                       : 0.135
Stream size                              : 3.88 GiB (70%)
Title                                    : Hasta que la boda nos separe (2020) 1080p BDRip Castellano [Subt. Ing]
Writing library                          : x264 core 152 r2851 ba24899
Language                                 : Spanish
Default                                  : Yes
Forced                                   : No

Audio #1
ID                                       : 2
Format                                   : AC-3
Format/Info                              : Audio Coding 3
Commercial name                          : Dolby Digital
Codec ID                                 : A_AC3
Duration                                 : 1 h 50 min
Bit rate mode                            : Constant
Bit rate                                 : 640 kb/s
Channel(s)                               : 6 channels
Channel layout                           : L R C LFE Ls Rs
Sampling rate                            : 48.0 kHz
Frame rate                               : 31.250 FPS (1536 SPF)
Compression mode                         : Lossy
Stream size                              : 506 MiB (9%)
Title                                    : Castellano
Language                                 : Spanish
Service kind                             : Complete Main
Default                                  : Yes
Forced                                   : No

Audio #2
ID                                       : 3
Format                                   : DTS
Format/Info                              : Digital Theater Systems
Codec ID                                 : A_DTS
Duration                                 : 1 h 50 min
Bit rate mode                            : Constant
Bit rate                                 : 1 509 kb/s
Channel(s)                               : 6 channels
Channel layout                           : C L R Ls Rs LFE
Sampling rate                            : 48.0 kHz
Frame rate                               : 93.750 FPS (512 SPF)
Bit depth                                : 16 bits
Compression mode                         : Lossy
Stream size                              : 1.17 GiB (21%)
Title                                    : Castellano
Language                                 : Spanish
Default                                  : No
Forced                                   : Yes

Text
ID                                       : 4
Format                                   : UTF-8
Codec ID                                 : S_TEXT/UTF8
Codec ID/Info                            : UTF-8 Plain Text
Duration                                 : 1 h 49 min
Bit rate                                 : 79 b/s
Count of elements                        : 1803
Stream size                              : 63.4 KiB (0%)
Title                                    : Subtítulos Inglés
Language                                 : English
Default                                  : No
Forced                                   : No

Menu
00:00:00.000                             : :Chapter 01
00:08:12.292                             : :Chapter 02
00:18:08.917                             : :Chapter 03
00:28:28.292                             : :Chapter 04
00:37:13.583                             : :Chapter 05
00:46:38.417                             : :Chapter 06
00:55:44.500                             : :Chapter 07
01:05:45.583                             : :Chapter 08
01:15:34.792                             : :Chapter 09
01:25:18.292                             : :Chapter 10
01:34:08.208                             : :Chapter 11
01:42:23.125                             : :Chapter 12

CONTRASEÑA



DESCARGAR



Enlaces de Mega y Google Drive solo disponibles para Miembros VIP

Compra tu Membresía VIP y apoya a Club-HD!

ATENCIÓN! Tenemos TODO el material de Club-HD disponible por Mega y Google Drive, enlaces 100% activos y online hasta la fecha

Llévate tus cuentas Mega PRO II gratis con tu membresía VIP!
Todos los posts vivos con links de Mega y Google Drive.
Todo el material de Club-HD desbloqueado y sin publicidad.

Click Aquí para más información.



Enlaces de Mega y Google Drive solo disponibles para Miembros VIP

Compra tu Membresía VIP y apoya a Club-HD!

ATENCIÓN! Tenemos TODO el material de Club-HD disponible por Mega y Google Drive, enlaces 100% activos y online hasta la fecha

Llévate tus cuentas Mega PRO II gratis con tu membresía VIP!
Todos los posts vivos con links de Mega y Google Drive.
Todo el material de Club-HD desbloqueado y sin publicidad.

Click Aquí para más información.



Para ver este contenido oculto, debes dar click en una de las siguientes reacciones: Like Like, Love Love, Haha Haha, Wow Wow, Sad Sad, Angry Angry



Para ver este contenido oculto, debes dar click en una de las siguientes reacciones: Like Like, Love Love, Haha Haha, Wow Wow, Sad Sad, Angry Angry



Para ver este contenido oculto, debes dar click en una de las siguientes reacciones: Like Like, Love Love, Haha Haha, Wow Wow, Sad Sad, Angry Angry



Para ver este contenido oculto, debes dar click en una de las siguientes reacciones: Like Like, Love Love, Haha Haha, Wow Wow, Sad Sad, Angry Angry
 

Usuarios Que Están Viendo Este Tema (Total: 1, Miembros: 0, Invitados: 1)

Arriba