Hawkeye (2021) S01E01-03 4k HDR Ligero WebRip Dual Latino-Inglés [Subt. Esp] (Serie de TV. Acción)

RUEDAS

Well-known member
Miembro del Staff
Súper Moderador
Uploader
Registro
1 Sep 2012
Mensajes
703
Reacciones
1.738
Puntos
93
Edad
41

Reputation:







"Hawkeye", de Marvel Studios, es una nueva serie original que transcurre en una Ciudad de Nueva York post-Blip, donde el antes vengador Clint Barton, alias Hawkeye, tiene una misión que parece simple: regresar con su familia para Navidad. Pero cuando surge una amenaza de su pasado, Hawkeye renuentemente hace equipo con Kate Bishop, una hábil arquera de 22 años y su fan número uno, para desentrañar una conspiración criminal..







Código:
Format                                   : Matroska
Format version                           : Version 4
File size                                : 853 MiB
Duration                                 : 47 min 24 s
Overall bit rate                         : 2 516 kb/s

Video
ID                                       : 1
Format                                   : HEVC
Format/Info                              : High Efficiency Video Coding
Format profile                           : Main 10@L5@Main
Codec ID                                 : V_MPEGH/ISO/HEVC
Duration                                 : 47 min 24 s
Bit rate                                 : 2 054 kb/s
Width                                    : 3 840 pixels
Height                                   : 1 608 pixels
Display aspect ratio                     : 2.40:1
Frame rate mode                          : Constant
Frame rate                               : 24.000 FPS
Color space                              : YUV
Chroma subsampling                       : 4:2:0
Bit depth                                : 10 bits

Audio #1
ID                                       : 2
Format                                   : AAC LC SBR
Format/Info                              : Advanced Audio Codec Low Complexity with Spectral Band Replication
Commercial name                          : HE-AAC
Format settings                          : Explicit
Codec ID                                 : A_AAC-2
Duration                                 : 47 min 24 s
Bit rate                                 : 205 kb/s
Channel(s)                               : 6 channels
Channel layout                           : C L R Ls Rs LFE
Sampling rate                            : 48.0 kHz
Frame rate                               : 23.438 FPS (2048 SPF)
Compression mode                         : Lossy
Delay relative to video                  : 23 ms
Stream size                              : 69.4 MiB (8%)
Language                                 : English
Default                                  : Yes
Forced                                   : No

Audio #2
ID                                       : 3
Format                                   : E-AC-3
Format/Info                              : Enhanced AC-3
Commercial name                          : Dolby Digital Plus
Codec ID                                 : A_EAC3
Duration                                 : 47 min 21 s
Bit rate mode                            : Constant
Bit rate                                 : 256 kb/s
Channel(s)                               : 6 channels
Channel layout                           : L R C LFE Ls Rs
Sampling rate                            : 48.0 kHz
Frame rate                               : 31.250 FPS (1536 SPF)
Compression mode                         : Lossy
Stream size                              : 86.7 MiB (10%)
Language                                 : Spanish
Service kind                             : Complete Main
Default                                  : Yes
Forced                                   : Yes

Text #1
ID                                       : 4
Format                                   : UTF-8
Codec ID                                 : S_TEXT/UTF8
Codec ID/Info                            : UTF-8 Plain Text
Duration                                 : 33 min 31 s
Bit rate                                 : 0 b/s
Count of elements                        : 9
Stream size                              : 187 Bytes (0%)
Language                                 : Spanish
Default                                  : Yes
Forced                                   : Yes

Text #2
ID                                       : 5
Format                                   : UTF-8
Codec ID                                 : S_TEXT/UTF8
Codec ID/Info                            : UTF-8 Plain Text
Duration                                 : 43 min 58 s
Bit rate                                 : 50 b/s
Count of elements                        : 451
Stream size                              : 16.3 KiB (0%)
Language                                 : Spanish
Default                                  : No
Forced                                   : No















CONTRASEÑA
www.club-hd.com








Todos los links son Intercambiables!







Enlaces de Mega y Fireload solo disponibles para Miembros VIP

Compra tu Membresía VIP y apoya a Club-HD!

ATENCIÓN! Tenemos TODO el material de Club-HD disponible por Mega y Fireload, enlaces 100% activos y online hasta la fecha

Llévate tus cuentas Mega PRO II gratis con tu membresía VIP!
Todos los posts vivos con links de Mega y Fireload.
Todo el material de Club-HD desbloqueado y sin publicidad.

Click Aquí para más información.






Enlaces de Mega y Fireload solo disponibles para Miembros VIP

Compra tu Membresía VIP y apoya a Club-HD!

ATENCIÓN! Tenemos TODO el material de Club-HD disponible por Mega y Fireload, enlaces 100% activos y online hasta la fecha

Llévate tus cuentas Mega PRO II gratis con tu membresía VIP!
Todos los posts vivos con links de Mega y Fireload.
Todo el material de Club-HD desbloqueado y sin publicidad.

Click Aquí para más información.




Para ver este contenido oculto, debes dar click en una de las siguientes reacciones : Like Like, Love Love, Haha Haha, Wow Wow, Sad Sad, Angry Angry




Para ver este contenido oculto, debes dar click en una de las siguientes reacciones : Like Like, Love Love, Haha Haha, Wow Wow, Sad Sad, Angry Angry



Para ver este contenido oculto, debes dar click en una de las siguientes reacciones : Like Like, Love Love, Haha Haha, Wow Wow, Sad Sad, Angry Angry
 
Última edición:

FUNKSW

Well-known member
Miembro VIP
Registro
12 Dic 2015
Mensajes
471
Reacciones
290
Puntos
63
Edad
44

Reputation:

Pregunta. En esa carpeta de Mega irás subiendo los restantes capítulos o será carpeta nueva por cada capítulo que salga?
 

RUEDAS

Well-known member
Miembro del Staff
Súper Moderador
Uploader
Registro
1 Sep 2012
Mensajes
703
Reacciones
1.738
Puntos
93
Edad
41

Reputation:

Pregunta. En esa carpeta de Mega irás subiendo los restantes capítulos o será carpeta nueva por cada capítulo que salga?
Asi es, se agregaran a la misma carpeta y este post sera actualizado semanalmente
 

Bernal

Well-known member
Registro
28 Ago 2012
Mensajes
1.485
Reacciones
241
Puntos
63

Reputation:

será mi tv? o el audio no calza con el video?
 

cripp

Well-known member
Registro
27 Ago 2012
Mensajes
9.683
Reacciones
845
Puntos
113

Reputation:

Gracias por compartir
 

RUEDAS

Well-known member
Miembro del Staff
Súper Moderador
Uploader
Registro
1 Sep 2012
Mensajes
703
Reacciones
1.738
Puntos
93
Edad
41

Reputation:

serie actualizada.
 

phillip64

Active member
Registro
29 Ago 2012
Mensajes
847
Reacciones
213
Puntos
43

Reputation:

Muchas gracias por continuar con la serie....esta magnifica! ;)
 

phillip64

Active member
Registro
29 Ago 2012
Mensajes
847
Reacciones
213
Puntos
43

Reputation:

Que lastima que en esta resolución no me funcione en mi pc, ojala la sigan compartiendo en 1080 o 720p como lo venían haciendo.... gracias amigos. ;)
 

Usuarios Que Están Viendo Este Tema (Total: 1, Miembros: 0, Invitados: 1)

Arriba