Hawkeye S01E01-04 (2021) 1080p DSNP WEB-DL Dual Latino-Inglés [Subt. Esp] (Serie de TV. Acción)

Bebesaurio

Novio de Vizard
Miembro del Staff
Moderador
Uploader
Registro
12 Mar 2018
Mensajes
929
Reacciones
27.402
Puntos
93
Edad
23

Reputation:





SINOPSIS

"Hawkeye", de Marvel Studios, es una nueva serie original que transcurre en una Ciudad de Nueva York post-Blip, donde el antes vengador Clint Barton, alias Hawkeye, tiene una misión que parece simple: regresar con su familia para Navidad. Pero cuando surge una amenaza de su pasado, Hawkeye renuentemente hace equipo con Kate Bishop, una hábil arquera de 22 años y su fan número uno, para desentrañar una conspiración criminal..



TRAILER



Nota: Episodio 4 agregado.



MEDIA INFO

Código:
General
Unique ID                                : 155652696946986063091404247044217572766 (0x75199E769E7AB659853E0F6F34030D9E)
Format                                   : Matroska
Format version                           : Version 4
File size                                : 2,25 GiB
Duration                                 : 47 min 21 s
Overall bit rate mode                    : Variable
Overall bit rate                         : 6 797 kb/s
Encoded date                             : UTC 2021-11-24 19:25:45
Writing application                      : mkvmerge v59.0.0 ('Shining Star') 64-bit
Writing library                          : libebml v1.4.2 + libmatroska v1.6.4
Cover                                    : Yes
Attachments                              : cover.jpg

Vídeo
ID                                       : 1
Format                                   : AVC
Format/Info                              : Advanced Video Codec
Format profile                           : High@L4
Format settings                          : CABAC / 4 Ref Frames
Format settings, CABAC                   : Sí
Format settings, Reference frames        : 4 fotogramas
Codec ID                                 : V_MPEG4/ISO/AVC
Duration                                 : 47 min 21 s
Bit rate mode                            : Variable
Bit rate                                 : 5 770 kb/s
Maximum bit rate                         : 12,7 Mb/s
Width                                    : 1 920 píxeles
Height                                   : 1 080 píxeles
Display aspect ratio                     : 16:9
Frame rate mode                          : Constante
Frame rate                               : 24,000 FPS
Color space                              : YUV
Chroma subsampling                       : 4:2:0
Bit depth                                : 8 bits
Scan type                                : Progresivo
Bits/(Pixel*Frame)                       : 0.116
Stream size                              : 1,91 GiB (85%)
Language                                 : Inglés
Default                                  : Sí
Forced                                   : No
Color range                              : Limited
Color primaries                          : BT.709
Transfer characteristics                 : BT.709
Matrix coefficients                      : BT.709

Audio #1
ID                                       : 2
Format                                   : E-AC-3
Format/Info                              : Enhanced AC-3
Commercial name                          : Dolby Digital Plus
Codec ID                                 : A_EAC3
Duration                                 : 47 min 21 s
Bit rate mode                            : Constante
Bit rate                                 : 256 kb/s
Channel(s)                               : 6 canales
Channel layout                           : L R C LFE Ls Rs
Sampling rate                            : 48,0 kHz
Frame rate                               : 31,250 FPS (1536 SPF)
Compression mode                         : Con pérdida
Stream size                              : 86,7 MiB (4%)
Title                                    : E-AC3 5.1
Language                                 : Español
Service kind                             : Complete Main
Default                                  : Sí
Forced                                   : Sí

Audio #2
ID                                       : 3
Format                                   : E-AC-3 JOC
Format/Info                              : Enhanced AC-3 with Joint Object Coding
Commercial name                          : Dolby Digital Plus with Dolby Atmos
Codec ID                                 : A_EAC3
Duration                                 : 47 min 21 s
Bit rate mode                            : Constante
Bit rate                                 : 768 kb/s
Channel(s)                               : 6 canales
Channel layout                           : L R C LFE Ls Rs
Sampling rate                            : 48,0 kHz
Frame rate                               : 31,250 FPS (1536 SPF)
Compression mode                         : Con pérdida
Stream size                              : 260 MiB (11%)
Title                                    : E-AC3 5.1
Language                                 : Inglés
Service kind                             : Complete Main
Default                                  : Sí
Forced                                   : No
Complexity index                         : 16
Number of dynamic objects                : 15
Bed channel count                        : 1 canal
Bed channel configuration                : LFE

Texto #1
ID                                       : 4
Format                                   : UTF-8
Codec ID                                 : S_TEXT/UTF8
Codec ID/Info                            : UTF-8 Plain Text
Duration                                 : 33 min 31 s
Bit rate                                 : 0 b/s
Count of elements                        : 9
Stream size                              : 191 Bytes (0%)
Title                                    : Forzados
Language                                 : Español
Default                                  : Sí
Forced                                   : Sí

Texto #2
ID                                       : 5
Format                                   : UTF-8
Codec ID                                 : S_TEXT/UTF8
Codec ID/Info                            : UTF-8 Plain Text
Duration                                 : 46 min 24 s
Bit rate                                 : 48 b/s
Count of elements                        : 524
Stream size                              : 16,5 KiB (0%)
Title                                    : Completos
Language                                 : Español
Default                                  : Sí
Forced                                   : No

Menú
00:45:30.417                             : Credits


CAPTURAS








DESCARGA

ENLACES VIP



Enlaces de Mega y Fireload solo disponibles para Miembros VIP

Compra tu Membresía VIP y apoya a Club-HD!

ATENCIÓN! Tenemos TODO el material de Club-HD disponible por Mega y Fireload, enlaces 100% activos y online hasta la fecha

Llévate tus cuentas Mega PRO II gratis con tu membresía VIP!
Todos los posts vivos con links de Mega y Fireload.
Todo el material de Club-HD desbloqueado y sin publicidad.

Click Aquí para más información.

ENLACES FREE


Para ver este contenido oculto, debes dar click en una de las siguientes reacciones : Like Like, Love Love, Haha Haha, Wow Wow, Sad Sad, Angry Angry


Para ver este contenido oculto, debes dar click en una de las siguientes reacciones : Like Like, Love Love, Haha Haha, Wow Wow, Sad Sad, Angry Angry


Para ver este contenido oculto, debes dar click en una de las siguientes reacciones : Like Like, Love Love, Haha Haha, Wow Wow, Sad Sad, Angry Angry


Para ver este contenido oculto, debes dar click en una de las siguientes reacciones : Like Like, Love Love, Haha Haha, Wow Wow, Sad Sad, Angry Angry

CONTRASEÑA

Código:
www.club-hd.com
 
Última edición:

phillip64

Active member
Registro
29 Ago 2012
Mensajes
847
Reacciones
213
Puntos
43

Reputation:

Muchas gracias por compartir la serie tan pronto amigos! ;)
 

cripp

Well-known member
Registro
27 Ago 2012
Mensajes
9.683
Reacciones
845
Puntos
113

Reputation:

Gracias por compartir
 

Usuarios Que Están Viendo Este Tema (Total: 5, Miembros: 3, Invitados: 2)

Arriba