Heroes S01-04 (2007-2010) 1080p AMZN WEB-DL Dual Latino-Inglés [Subt.Esp] (Drama. Ciencia ficción)

Tr3vor

Well-known member
Uploader
Colaborador
Registro
17 May 2018
Mensajes
1.270
Reacciones
12.987
Puntos
113
Edad
32

Reputation:






Héroes es un drama épico que narra las vidas de gente normal: un profesor de genética, una enfermera de cuidados paliativos, una madre soltera, un policía de calle, una animadora de un pequeño pueblo, un atormentado artista o un fanático de los ordenadores, que deberán enfrentarse a sus nuevos poderes sobrehumanos.


MEDIAINFO
Código:
Format                      : Matroska
Format version              : Version 4
File size                   : 4.00 GiB
Duration                    : 52 min 34 s
Overall bit rate            : 10.9 Mb/s
Encoded date                : UTC 2021-11-17 07:33:55
Writing application         : mkvmerge v58.0.0 ('Supper's Ready') 32-bit
Writing library             : libebml v1.4.2 + libmatroska v1.6.4

Video
ID                          : 1
Format                      : AVC
Format/Info                 : Advanced Video Codec
Format profile              : High@L4
Format settings             : CABAC / 4 Ref Frames
Format settings, CABAC      : Yes
Format settings, Reference  : 4 frames
Codec ID                    : V_MPEG4/ISO/AVC
Duration                    : 52 min 34 s
Bit rate mode               : Constant
Bit rate                    : 10 000 kb/s
Width                       : 1 920 pixels
Height                      : 1 080 pixels
Display aspect ratio        : 16:9
Frame rate mode             : Constant
Frame rate                  : 23.976 (24000/1001) FPS
Color space                 : YUV
Chroma subsampling          : 4:2:0
Bit depth                   : 8 bits
Scan type                   : Progressive
Bits/(Pixel*Frame)          : 0.201
Stream size                 : 3.53 GiB (88%)
Default                     : Yes
Forced                      : No
Color range                 : Limited
Color primaries             : BT.709
Transfer characteristics    : BT.709
Matrix coefficients         : BT.709

Audio #1
ID                          : 2
Format                      : E-AC-3
Format/Info                 : Enhanced AC-3
Commercial name             : Dolby Digital Plus
Codec ID                    : A_EAC3
Duration                    : 52 min 34 s
Bit rate mode               : Constant
Bit rate                    : 640 kb/s
Channel(s)                  : 6 channels
Channel layout              : L R C LFE Ls Rs
Sampling rate               : 48.0 kHz
Frame rate                  : 31.250 FPS (1536 SPF)
Compression mode            : Lossy
Stream size                 : 241 MiB (6%)
Title                       : English
Language                    : English
Service kind                : Complete Main
Default                     : Yes
Forced                      : No

Audio #2
ID                          : 3
Format                      : E-AC-3
Format/Info                 : Enhanced AC-3
Commercial name             : Dolby Digital Plus
Codec ID                    : A_EAC3
Duration                    : 52 min 34 s
Bit rate mode               : Constant
Bit rate                    : 640 kb/s
Channel(s)                  : 6 channels
Channel layout              : L R C LFE Ls Rs
Sampling rate               : 48.0 kHz
Frame rate                  : 31.250 FPS (1536 SPF)
Compression mode            : Lossy
Stream size                 : 241 MiB (6%)
Title                       : Spanish
Language                    : Spanish
Service kind                : Complete Main
Default                     : No
Forced                      : No

Text #1
ID                          : 4
Format                      : UTF-8
Codec ID                    : S_TEXT/UTF8
Codec ID/Info               : UTF-8 Plain Text
Duration                    : 45 min 27 s
Bit rate                    : 14 b/s
Count of elements           : 202
Stream size                 : 4.75 KiB (0%)
Title                       : English [Forced]
Language                    : English
Default                     : No
Forced                      : Yes

Text #2
ID                          : 5
Format                      : UTF-8
Codec ID                    : S_TEXT/UTF8
Codec ID/Info               : UTF-8 Plain Text
Duration                    : 51 min 50 s
Bit rate                    : 64 b/s
Count of elements           : 873
Stream size                 : 24.6 KiB (0%)
Title                       : English [SDH]
Language                    : English
Default                     : No
Forced                      : No

Text #3
ID                          : 6
Format                      : UTF-8
Codec ID                    : S_TEXT/UTF8
Codec ID/Info               : UTF-8 Plain Text
Duration                    : 40 min 42 s
Bit rate                    : 7 b/s
Count of elements           : 89
Stream size                 : 2.16 KiB (0%)
Title                       : Castilian [Forced]
Language                    : Spanish
Default                     : No
Forced                      : Yes

Text #4
ID                          : 7
Format                      : UTF-8
Codec ID                    : S_TEXT/UTF8
Codec ID/Info               : UTF-8 Plain Text
Duration                    : 40 min 42 s
Bit rate                    : 9 b/s
Count of elements           : 103
Stream size                 : 2.82 KiB (0%)
Title                       : Spanish [Forced]
Language                    : Spanish
Default                     : No
Forced                      : Yes

Menu
00:00:00.000                : Title Sequence
00:00:11.000                : Previously On
00:01:50.000                : A spectator tries to talk to Suresh about a job
00:03:55.000                : Maya and Alejandro run from the police
00:05:34.000                : Claire and her father talk about the first day
00:08:19.000                : Hiro gets caught up in a past fight
00:10:29.000                : Matt goes through a field test and gets surprising news
00:12:35.000                : Claire listens to Mr. Zern and meets West
00:14:38.000                : Alejandro and Maya negotiate a ride to the border
00:15:53.000                : Matt picks up Molly and talks to Ms. Gerber
00:17:30.000                : Ando talks to Mr. Nakamura about Hiro's return
00:19:11.000                : Nathan kicks his mom out
00:20:40.000                : Hiro tries to explain to Kensei who he is
00:22:20.000                : Break
00:22:21.000                : The manager talks to Noah about being late
00:23:26.000                : Bob talks to Suresh about his research and the team
00:25:36.000                : Matt tries to talk to Molly about her drawings
00:27:08.000                : The driver pulls Alejandro out for a negotiation
00:29:22.000                : Claire tries to stand up for a classmate
00:32:30.000                : Matt tries to listen in on Molly's dream
00:33:38.000                : Claire attempts a back tuck off the tower
00:34:22.000                : Noah is confronted by his manager
00:35:30.000                : Hiro tries to put fairy tale and facts together
00:37:55.000                : Ando talks to Mr. Nakamura about the situation
00:40:25.000                : Hiro realizes he is altering history and tries to fix it
00:43:08.000                : Break
00:43:11.000                : The family talk about their day as Noah gets a call
00:45:55.000                : Alejandro catches up to the truck and finds Maya crying
00:47:31.000                : Claire calls Nathan for comfort
00:49:18.000                : Mr. Nakamura waits for Ando to return
00:50:16.000                : The bandits try and open up a crate of electronics
00:51:57.000                : End Credits









Resolución de video: 1920x1080 (AVC, High@L4)
Formato de audio: EAC3 640 kb/s 5.1 (Español latino), EAC3 640 kb/s 5.1 (Inglés) la temporada 1 es la unica que tiene audio latino 224 kb/s
Formato de subtítulos: SubRip (.srt) (Completos & Forzados)
Lista de audio: Latino e inglés
Fuente: Prime Video

Deje subiendo a mega las temporadas 2 y 3 pero eventualmente subire la 4 tambien a mega





Enlaces de Mega y Fireload solo disponibles para Miembros VIP

Compra tu Membresía VIP y apoya a Club-HD!

ATENCIÓN! Tenemos TODO el material de Club-HD disponible por Mega y Fireload, enlaces 100% activos y online hasta la fecha

Llévate tus cuentas Mega PRO II gratis con tu membresía VIP!
Todos los posts vivos con links de Mega y Fireload.
Todo el material de Club-HD desbloqueado y sin publicidad.

Click Aquí para más información.


Enlaces de Mega y Fireload solo disponibles para Miembros VIP

Compra tu Membresía VIP y apoya a Club-HD!

ATENCIÓN! Tenemos TODO el material de Club-HD disponible por Mega y Fireload, enlaces 100% activos y online hasta la fecha

Llévate tus cuentas Mega PRO II gratis con tu membresía VIP!
Todos los posts vivos con links de Mega y Fireload.
Todo el material de Club-HD desbloqueado y sin publicidad.

Click Aquí para más información.
 
Última edición:

fresco

Well-known member
Registro
30 Abr 2013
Mensajes
2.645
Reacciones
161
Puntos
63

Reputation:

Excelente... Añadiran Heroes Reborn para descargar???
 

cripp

Well-known member
Registro
27 Ago 2012
Mensajes
9.683
Reacciones
845
Puntos
113

Reputation:

Gracias por compartir
 

Usuarios Que Están Viendo Este Tema (Total: 1, Miembros: 0, Invitados: 1)

Arriba