High School (2010) m-720p BDRip Dual Latino-Inglés [Subt. Esp-Ing] (Comedia)

Max

Admin
Miembro del Staff
Administrador
Miembro VIP
Registro
8 Ago 2012
Mensajes
6.003
Ubicación
Disco C




TÍTULO ORIGINAL: High School
AÑO: 2010
DURACIÓN: 100 min.
PAÍS: Estados Unidos
DIRECTOR: John Stalberg
GUIÓN: Erik Linthorst, John Stalberg, Stephen Susco
MÚSICA: Harold Faltermeyer, Freescha, The Newton Brothers
FOTOGRAFÍA: Mitchell Amundsen
REPARTO: Adrien Brody, Sean Marquette, Matt Bush, Colin Hanks, Michael Chiklis, Adhir Kalyan
PRODUCTORA: Parallel Media / Parallel Zide
GÉNERO: Comedia | Drogas. Colegios & Universidad

http://www.imdb.com/title/tt1247667/






En una escuela secundaria, en la que el consumo de estupefacientes ha aumentado mucho entre los alumnos, están a punto de realizar un test antidroga. El director del centro tendrá que vérselas con el camello que le vende la droga a los alumnos (Adrien Brody).



































Código:
General
Complete name                            : High School (2010) m-720p BDRip Dual Latino-Inglés [Subt. Esp-Ing] (1).mkv
Format                                   : Matroska
Format version                           : Version 2
File size                                : 2.24 GiB
Duration                                 : 1h 39mn
Overall bit rate                         : 3 215 Kbps
Movie name                               : www.club-hd.com --> High School (2010) m-720p BDRip Dual Latino-Inglés [Subt. Esp-Ing]
Encoded date                             : UTC 2012-11-21 13:59:43
Writing application                      : mkvmerge v5.8.0 ('No Sleep / Pillow') built on Sep  2 2012 15:37:04
Writing library                          : libebml v1.2.3 + libmatroska v1.3.0

Video
ID                                       : 1
Format                                   : AVC
Format/Info                              : Advanced Video Codec
Format profile                           : High@L4.1
Format settings, CABAC                   : Yes
Format settings, ReFrames                : 8 frames
Codec ID                                 : V_MPEG4/ISO/AVC
Duration                                 : 1h 39mn
Bit rate                                 : 2 575 Kbps
Width                                    : 1 280 pixels
Height                                   : 534 pixels
Display aspect ratio                     : 2.40:1
Frame rate mode                          : Constant
Frame rate                               : 23.976 fps
Color space                              : YUV
Chroma subsampling                       : 4:2:0
Bit depth                                : 8 bits
Scan type                                : Progressive
Bits/(Pixel*Frame)                       : 0.157
Stream size                              : 1.75 GiB (78%)
Title                                    : www.club-hd.com --> High School (2010) m-720p BDRip Dual Latino-Inglés [Subt. Esp-Ing]
Writing library                          : x264 core 125 r2208 d9d2288
Encoding settings                        : cabac=1 / ref=9 / deblock=1:-3:-3 / analyse=0x3:0x113 / me=umh / subme=10 / psy=1 / psy_rd=1.00:0.00 / mixed_ref=1 / me_range=16 / chroma_me=1 / trellis=2 / 8x8dct=1 / cqm=0 / deadzone=21,11 / fast_pskip=1 / chroma_qp_offset=-2 / threads=12 / lookahead_threads=2 / sliced_threads=0 / nr=0 / decimate=1 / interlaced=0 / bluray_compat=0 / constrained_intra=0 / bframes=3 / b_pyramid=1 / b_adapt=1 / b_bias=0 / direct=1 / weightb=1 / open_gop=0 / weightp=2 / keyint=250 / keyint_min=23 / scenecut=40 / intra_refresh=0 / rc=2pass / mbtree=0 / bitrate=2575 / ratetol=1.0 / qcomp=0.60 / qpmin=0 / qpmax=69 / qpstep=4 / cplxblur=20.0 / qblur=0.5 / ip_ratio=1.40 / pb_ratio=1.30 / aq=1:0.80
Language                                 : English
Default                                  : Yes
Forced                                   : No

Audio #1
ID                                       : 2
Format                                   : AC-3
Format/Info                              : Audio Coding 3
Format profile                           : Dolby Digital
Mode extension                           : CM (complete main)
Format settings, Endianness              : Big
Codec ID                                 : A_AC3
Duration                                 : 1h 39mn
Bit rate mode                            : Constant
Bit rate                                 : 192 Kbps
Channel(s)                               : 2 channels
Channel positions                        : Front: L R
Sampling rate                            : 48.0 KHz
Bit depth                                : 16 bits
Compression mode                         : Lossy
Stream size                              : 137 MiB (6%)
Title                                    : High School (2010) - Español Latino AC3 2.0
Language                                 : Spanish
Default                                  : Yes
Forced                                   : No

Audio #2
ID                                       : 3
Format                                   : AC-3
Format/Info                              : Audio Coding 3
Mode extension                           : CM (complete main)
Format settings, Endianness              : Big
Codec ID                                 : A_AC3
Duration                                 : 1h 39mn
Bit rate mode                            : Constant
Bit rate                                 : 448 Kbps
Channel(s)                               : 6 channels
Channel positions                        : Front: L C R, Side: L R, LFE
Sampling rate                            : 48.0 KHz
Bit depth                                : 16 bits
Compression mode                         : Lossy
Stream size                              : 319 MiB (14%)
Title                                    : High School (2010) - Inglés AC3 5.1
Language                                 : English
Default                                  : No
Forced                                   : No

Text #1
ID                                       : 4
Format                                   : UTF-8
Codec ID                                 : S_TEXT/UTF8
Codec ID/Info                            : UTF-8 Plain Text
Title                                    : Subtítulos Español
Language                                 : Spanish
Default                                  : No
Forced                                   : No

Text #2
ID                                       : 5
Format                                   : UTF-8
Codec ID                                 : S_TEXT/UTF8
Codec ID/Info                            : UTF-8 Plain Text
Title                                    : Subtítulos Inglés
Language                                 : English
Default                                  : No
Forced                                   : No

Menu
00:00:00.000                             : en:Chapter 1
00:06:11.288                             : en:Chapter 2
00:17:41.602                             : en:Chapter 3
00:25:11.802                             : en:Chapter 4
00:34:07.087                             : en:Chapter 5
00:41:19.936                             : en:Chapter 6
00:51:06.647                             : en:Chapter 7
00:57:08.842                             : en:Chapter 8
01:04:43.588                             : en:Chapter 9
01:19:43.153                             : en:Chapter 10
01:28:08.575                             : en:Chapter 11
01:33:36.236                             : en:Chapter 12







Todos los links son Intercambiables!





Enlaces de Mega y Google Drive solo disponibles para Miembros VIP

Compra tu Membresía VIP y apoya a Club-HD!

ATENCIÓN! Tenemos TODO el material de Club-HD disponible por Mega y Google Drive, enlaces 100% activos y online hasta la fecha

Llévate tus cuentas Mega PRO III gratis con tu membresía VIP!
Todos los posts vivos con links de Mega y Google Drive.
Todo el material de Club-HD desbloqueado y sin publicidad.

Click Aquí para más información.




Enlaces de Mega y Google Drive solo disponibles para Miembros VIP

Compra tu Membresía VIP y apoya a Club-HD!

ATENCIÓN! Tenemos TODO el material de Club-HD disponible por Mega y Google Drive, enlaces 100% activos y online hasta la fecha

Llévate tus cuentas Mega PRO III gratis con tu membresía VIP!
Todos los posts vivos con links de Mega y Google Drive.
Todo el material de Club-HD desbloqueado y sin publicidad.

Click Aquí para más información.





Para ver este contenido oculto, debes dar click en una de las siguientes reacciones : Like Like, Love Love, Haha Haha, Wow Wow, Sad Sad, Angry Angry
 
Última edición por un moderador:

remeker

Member
Registro
27 Ago 2012
Mensajes
837
Estaba a punto de descargar el m1080p pero mejor me llevo esto ya que tambien me aliviana de espacio en el disco
 

Xbellz

New member
Registro
29 Ago 2012
Mensajes
58
Por fin mil gracias es un lujaso lo que hicieron, se agradece a mil...... :aplausos:
 

Mate78

Ladron de mi cerebro
Miembro del Staff
Súper Moderador
Miembro VIP
Registro
27 Ago 2012
Mensajes
1.244
Esta peli es tremendaaaa , muy recomendada , gracias querido MAX :aplausos:
 

Usuarios Que Están Viendo Este Tema (Total: 1, Miembros: 0, Invitados: 1)

Quién Leyó Este Tema (Total Miembros: 1)

Arriba