Hotel Transylvania (2012) 720p Dual Latino-Inglés [Subt. Esp-Ing] (Animación)

Maestro Revolver

Well-known member
Miembro del Staff
Administrador
Registro
9 Ago 2012
Mensajes
3.569
Reacciones
59.480
Puntos
113

Reputation:









TÍTULO ORIGINAL: Hotel Transylvania
AÑO: 2012
DURACIÓN: 91 min.
PAÍS: USA
DIRECTOR: Genndy Tartakovsky
GUIÓN: David I. Stern, Dan Hageman, Kevin Hageman
REPARTO: Animation
PRODUCTORA: Sony Pictures Animation
GÉNERO: Animación. Comedia. Fantástico | Monstruos. Comedia de terror. 3-D
: http://www.imdb.com/title/tt0837562/

PREMIOS: 2012: Premios Annie: 8 nominaciones, incluyendo mejor película
2012: Globos de Oro: Nominada a Mejor película de animación






Desde su nacimiento, Mavis vive en el lujoso hotel Transylvania, que fue creado para proteger a los monstruos de la amenaza de los seres humanos. Cuando Mavis está a punto de cumplir la mayoría de edad (118 años), su padre, el conde Drácula, le prepara una fiesta a la que acuden los mejores amigos de la familia: desde Frankenstein al Hombre Invisible o la Momia; pero también asiste a la celebración un hombre que se enamora de Mavis.
























La pelicula NO tiene ninguna marca... solo colocamos el nombre de esta web en las capturas






Código:
General
Format                                   : Matroska
Format version                           : Version 2
File size                                : 3.01 GiB
Duration                                 : 1h 31mn
Overall bit rate                         : 4 702 Kbps
Movie name                               : www.club-hd.com
Encoded date                             : UTC 2013-01-11 05:37:53
Writing application                      : mkvmerge v5.7.0 ('The Whirlwind') built on Jul  8 2012 20:08:51
Writing library                          : libebml v1.2.3 + libmatroska v1.3.0

Video
ID                                       : 1
Format                                   : AVC
Format/Info                              : Advanced Video Codec
Format profile                           : High@L4.1
Format settings, CABAC                   : Yes
Format settings, ReFrames                : 5 frames
Codec ID                                 : V_MPEG4/ISO/AVC
Duration                                 : 1h 31mn
Bit rate                                 : 3 612 Kbps
Width                                    : 1 280 pixels
Height                                   : 696 pixels
Display aspect ratio                     : 1.85:1
Frame rate mode                          : Constant
Frame rate                               : 23.976 fps
Color space                              : YUV
Chroma subsampling                       : 4:2:0
Bit depth                                : 8 bits
Scan type                                : Progressive
Bits/(Pixel*Frame)                       : 0.169
Stream size                              : 2.25 GiB (75%)
Title                                    : www.club-hd.com
Writing library                          : x264 core 129 r2230 1cffe9f
Language                                 : English
Default                                  : Yes
Forced                                   : No

Audio #1
ID                                       : 2
Format                                   : AC-3
Format/Info                              : Audio Coding 3
Mode extension                           : CM (complete main)
Format settings, Endianness              : Big
Codec ID                                 : A_AC3
Duration                                 : 1h 31mn
Bit rate mode                            : Constant
Bit rate                                 : 448 Kbps
Channel(s)                               : 6 channels
Channel positions                        : Front: L C R, Side: L R, LFE
Sampling rate                            : 48.0 KHz
Bit depth                                : 16 bits
Compression mode                         : Lossy
Stream size                              : 293 MiB (10%)
Title                                    : www.club-hd.com  >>  [B][COLOR=#008000]Audio 2  Inglés[/COLOR][/B]
Language                                 : Spanish
Default                                  : Yes
Forced                                   : No

Audio #2
ID                                       : 3
Format                                   : AC-3
Format/Info                              : Audio Coding 3
Mode extension                           : CM (complete main)
Format settings, Endianness              : Big
Codec ID                                 : A_AC3
Duration                                 : 1h 31mn
Bit rate mode                            : Constant
Bit rate                                 : 640 Kbps
Channel(s)                               : 6 channels
Channel positions                        : Front: L C R, Side: L R, LFE
Sampling rate                            : 48.0 KHz
Bit depth                                : 16 bits
Compression mode                         : Lossy
Stream size                              : 419 MiB (14%)
Title                                    : www.club-hd.com  >> [B][COLOR=#008000]Audio 2  Latino[/COLOR][/B]
Language                                 : English
Default                                  : No
Forced                                   : No

Text #1
ID                                       : 4
Format                                   : UTF-8
Codec ID                                 : S_TEXT/UTF8
Codec ID/Info                            : UTF-8 Plain Text
Title                                    : Forzados
Language                                 : Spanish
Default                                  : Yes
Forced                                   : No

Text #2
ID                                       : 5
Format                                   : UTF-8
Codec ID                                 : S_TEXT/UTF8
Codec ID/Info                            : UTF-8 Plain Text
Language                                 : Spanish
Default                                  : No
Forced                                   : No

Text #3
ID                                       : 6
Format                                   : UTF-8
Codec ID                                 : S_TEXT/UTF8
Codec ID/Info                            : UTF-8 Plain Text
Language                                 : English
Default                                  : No
Forced                                   : No

Menu
00:00:00.000                             : en:00:00:00.000
00:04:49.372                             : en:00:04:49.372
00:10:23.790                             : en:00:10:23.790
00:14:19.275                             : en:00:14:19.275
00:19:25.498                             : en:00:19:25.498
00:25:11.218                             : en:00:25:11.218
00:29:49.413                             : en:00:29:49.413
00:35:50.815                             : en:00:35:50.815
00:41:11.636                             : en:00:41:11.636
00:46:29.537                             : en:00:46:29.537
00:53:50.227                             : en:00:53:50.227
00:57:44.795                             : en:00:57:44.795
01:04:15.268                             : en:01:04:15.268
01:08:48.499                             : en:01:08:48.499
01:15:20.599                             : en:01:15:20.599
01:18:50.643                             : en:01:18:50.643










Enlaces de Mega y Fireload solo disponibles para Miembros VIP

Compra tu Membresía VIP y apoya a Club-HD!

ATENCIÓN! Tenemos TODO el material de Club-HD disponible por Mega y Fireload, enlaces 100% activos y online hasta la fecha

Llévate tus cuentas Mega PRO II gratis con tu membresía VIP!
Todos los posts vivos con links de Mega y Fireload.
Todo el material de Club-HD desbloqueado y sin publicidad.

Click Aquí para más información.




Enlaces de Mega y Fireload solo disponibles para Miembros VIP

Compra tu Membresía VIP y apoya a Club-HD!

ATENCIÓN! Tenemos TODO el material de Club-HD disponible por Mega y Fireload, enlaces 100% activos y online hasta la fecha

Llévate tus cuentas Mega PRO II gratis con tu membresía VIP!
Todos los posts vivos con links de Mega y Fireload.
Todo el material de Club-HD desbloqueado y sin publicidad.

Click Aquí para más información.



Para ver este contenido oculto, debes dar click en una de las siguientes reacciones : Like Like, Love Love, Haha Haha, Wow Wow, Sad Sad, Angry Angry
 
Última edición:

z3r0

New member
Registro
31 Ago 2012
Mensajes
318
Reacciones
6
Puntos
0

Reputation:

Muchisimas gracias, ya hace dias me la pidio mi hijo. Saludos, como siempre hacen una labor excelente
 

Usuarios Que Están Viendo Este Tema (Total: 1, Miembros: 0, Invitados: 1)

Arriba