How I Met Your Mother S01-08 (2006-2013) 1080p AMZN WEB-DL Latino-Inglés [Multi Subs] (Comedia)

Trevor

Well-known member
Miembro del Staff
Uploader
Registro
17 May 2018
Mensajes
1.612
Edad
33





"How I Met Your Mother" ha vuelto para una divertida octava temporada para continuar con la historia de cómo Ted se enamoró.



Código:
Format                      : Matroska
Format version              : Version 4
File size                   : 1.55 GiB
Duration                    : 21 min 54 s
Overall bit rate            : 10.1 Mb/s
Encoded date                : UTC 2022-07-03 16:41:37
Writing application         : mkvmerge v58.0.0 ('Supper's Ready') 32-bit
Writing library             : libebml v1.4.2 + libmatroska v1.6.4

Video
ID                          : 1
Format                      : AVC
Format/Info                 : Advanced Video Codec
Format profile              : High@L4
Format settings             : CABAC / 4 Ref Frames
Format settings, CABAC      : Yes
Format settings, Reference  : 4 frames
Codec ID                    : V_MPEG4/ISO/AVC
Duration                    : 21 min 54 s
Bit rate mode               : Constant
Bit rate                    : 9 238 kb/s
Nominal bit rate            : 10 000 kb/s
Width                       : 1 920 pixels
Height                      : 1 080 pixels
Display aspect ratio        : 16:9
Frame rate mode             : Constant
Frame rate                  : 23.976 (24000/1001) FPS
Color space                 : YUV
Chroma subsampling          : 4:2:0
Bit depth                   : 8 bits
Scan type                   : Progressive
Bits/(Pixel*Frame)          : 0.186
Stream size                 : 1.41 GiB (91%)
Default                     : Yes
Forced                      : No
Color range                 : Limited
Color primaries             : BT.709
Transfer characteristics    : BT.709
Matrix coefficients         : BT.709

Audio #1
ID                          : 2
Format                      : E-AC-3
Format/Info                 : Enhanced AC-3
Commercial name             : Dolby Digital Plus
Codec ID                    : A_EAC3
Duration                    : 21 min 54 s
Bit rate mode               : Constant
Bit rate                    : 224 kb/s
Channel(s)                  : 2 channels
Channel layout              : L R
Sampling rate               : 48.0 kHz
Frame rate                  : 31.250 FPS (1536 SPF)
Compression mode            : Lossy
Stream size                 : 35.1 MiB (2%)
Title                       : Spanish
Language                    : Spanish
Service kind                : Complete Main
Default                     : Yes
Forced                      : No

Audio #2
ID                          : 3
Format                      : E-AC-3
Format/Info                 : Enhanced AC-3
Commercial name             : Dolby Digital Plus
Codec ID                    : A_EAC3
Duration                    : 21 min 54 s
Bit rate mode               : Constant
Bit rate                    : 640 kb/s
Channel(s)                  : 6 channels
Channel layout              : L R C LFE Ls Rs
Sampling rate               : 48.0 kHz
Frame rate                  : 31.250 FPS (1536 SPF)
Compression mode            : Lossy
Stream size                 : 100 MiB (6%)
Title                       : English
Language                    : English
Service kind                : Complete Main
Default                     : No
Forced                      : No

Text #1
ID                          : 4
Format                      : UTF-8
Codec ID                    : S_TEXT/UTF8
Codec ID/Info               : UTF-8 Plain Text
Duration                    : 19 min 14 s
Bit rate                    : 1 b/s
Count of elements           : 12
Stream size                 : 162 Bytes (0%)
Title                       : Spanish [Forced]
Language                    : Spanish
Default                     : No
Forced                      : Yes

Text #2
ID                          : 5
Format                      : UTF-8
Codec ID                    : S_TEXT/UTF8
Codec ID/Info               : UTF-8 Plain Text
Duration                    : 20 min 49 s
Bit rate                    : 95 b/s
Count of elements           : 395
Stream size                 : 14.6 KiB (0%)
Title                       : Spanish [Full]
Language                    : Spanish
Default                     : No
Forced                      : No

Text #3
ID                          : 6
Format                      : UTF-8
Codec ID                    : S_TEXT/UTF8
Codec ID/Info               : UTF-8 Plain Text
Duration                    : 8 min 1 s
Bit rate                    : 0 b/s
Count of elements           : 3
Stream size                 : 54.0 Bytes (0%)
Title                       : Castilian [Forced]
Language                    : Spanish
Default                     : No
Forced                      : Yes

Text #4
ID                          : 7
Format                      : UTF-8
Codec ID                    : S_TEXT/UTF8
Codec ID/Info               : UTF-8 Plain Text
Duration                    : 20 min 29 s
Bit rate                    : 93 b/s
Count of elements           : 367
Stream size                 : 14.0 KiB (0%)
Title                       : Castilian [Full]
Language                    : Spanish
Default                     : No
Forced                      : No

Text #5
ID                          : 8
Format                      : UTF-8
Codec ID                    : S_TEXT/UTF8
Codec ID/Info               : UTF-8 Plain Text
Duration                    : 20 min 49 s
Bit rate                    : 102 b/s
Count of elements           : 530
Stream size                 : 15.6 KiB (0%)
Title                       : English [SDH]
Language                    : English
Default                     : No
Forced                      : No

Text #6
ID                          : 9
Format                      : UTF-8
Codec ID                    : S_TEXT/UTF8
Codec ID/Info               : UTF-8 Plain Text
Duration                    : 19 min 49 s
Bit rate                    : 0 b/s
Count of elements           : 17
Stream size                 : 143 Bytes (0%)
Title                       : French [Forced]
Language                    : French
Default                     : No
Forced                      : Yes

Text #7
ID                          : 10
Format                      : UTF-8
Codec ID                    : S_TEXT/UTF8
Codec ID/Info               : UTF-8 Plain Text
Duration                    : 21 min 14 s
Bit rate                    : 87 b/s
Count of elements           : 332
Stream size                 : 13.5 KiB (0%)
Title                       : French [Full]
Language                    : French
Default                     : No
Forced                      : No

Text #8
ID                          : 11
Format                      : UTF-8
Codec ID                    : S_TEXT/UTF8
Codec ID/Info               : UTF-8 Plain Text
Duration                    : 19 min 49 s
Bit rate                    : 0 b/s
Count of elements           : 18
Stream size                 : 148 Bytes (0%)
Title                       : German [Forced]
Language                    : German
Default                     : No
Forced                      : Yes

Text #9
ID                          : 12
Format                      : UTF-8
Codec ID                    : S_TEXT/UTF8
Codec ID/Info               : UTF-8 Plain Text
Duration                    : 20 min 29 s
Bit rate                    : 108 b/s
Count of elements           : 364
Stream size                 : 16.2 KiB (0%)
Title                       : German [Full]
Language                    : German
Default                     : No
Forced                      : No

Text #10
ID                          : 13
Format                      : UTF-8
Codec ID                    : S_TEXT/UTF8
Codec ID/Info               : UTF-8 Plain Text
Duration                    : 19 min 49 s
Bit rate                    : 1 b/s
Count of elements           : 18
Stream size                 : 215 Bytes (0%)
Title                       : Italian [Forced]
Language                    : Italian
Default                     : No
Forced                      : Yes

Text #11
ID                          : 14
Format                      : UTF-8
Codec ID                    : S_TEXT/UTF8
Codec ID/Info               : UTF-8 Plain Text
Duration                    : 20 min 29 s
Bit rate                    : 95 b/s
Count of elements           : 354
Stream size                 : 14.3 KiB (0%)
Title                       : Italian [Full]
Language                    : Italian
Default                     : No
Forced                      : No

Text #12
ID                          : 15
Format                      : UTF-8
Codec ID                    : S_TEXT/UTF8
Codec ID/Info               : UTF-8 Plain Text
Duration                    : 19 min 47 s
Bit rate                    : 0 b/s
Count of elements           : 13
Stream size                 : 82.0 Bytes (0%)
Title                       : Brazilian Portuguese [Forced]
Language                    : Portuguese
Default                     : No
Forced                      : Yes

Text #13
ID                          : 16
Format                      : UTF-8
Codec ID                    : S_TEXT/UTF8
Codec ID/Info               : UTF-8 Plain Text
Duration                    : 20 min 54 s
Bit rate                    : 99 b/s
Count of elements           : 467
Stream size                 : 15.2 KiB (0%)
Title                       : Brazilian Portuguese [Full]
Language                    : Portuguese
Default                     : No
Forced                      : No

Text #14
ID                          : 17
Format                      : UTF-8
Codec ID                    : S_TEXT/UTF8
Codec ID/Info               : UTF-8 Plain Text
Duration                    : 20 min 54 s
Bit rate                    : 99 b/s
Count of elements           : 467
Stream size                 : 15.2 KiB (0%)
Title                       : Brazilian Portuguese [SDH]
Language                    : Portuguese
Default                     : No
Forced                      : No

Menu
00:00:00.000                : Future Ted Talks about the Summer of 2006
00:01:09.000                : Robin Finds Out about Lily and Marshall
00:02:49.000                : Opening Credits
00:03:02.000                : Break
00:03:04.000                : Beginning and End of Relationships
00:03:45.000                : Marshall's In a Bad Place
00:05:27.000                : Things Are Going Great, Almost
00:06:42.000                : Marshall Needs Help
00:07:16.000                : The Boys Try to Cheer Up Marshall
00:09:00.000                : Robin Takes Control
00:10:34.000                : Marshall Regresses
00:12:37.000                : Barney Makes It Worse
00:13:19.000                : Break
00:13:21.000                : Marshall Calls The Hotel
00:15:29.000                : Ted Calls Barney
00:16:55.000                : Marshall Confronts Lily
00:19:36.000                : Its Pancake Day
00:20:52.000                : Break
00:20:54.000                : End Credits









Fuente video: WEB-DL H264 1080p (High@L4,AVC)
Fuente audios: WEB-DL EAC3 2.0 a 224 kb/s
Fuente audios: WEB-DL EAC3 5.1 a 640 kb/s
Idiomas audios: English, Español (Latinoamérica)
Formato de subtítulos: SubRip (.srt)
Idiomas subtitulos: Español (Latinoamérica)
Fuente: AMAZON

Algunas Temporadas tienen Audio Latino 5.1







Enlaces de Mega y Google Drive solo disponibles para Miembros VIP

Compra tu Membresía VIP y apoya a Club-HD!

ATENCIÓN! Tenemos TODO el material de Club-HD disponible por Mega y Google Drive, enlaces 100% activos y online hasta la fecha

Llévate tus cuentas Mega PRO III gratis con tu membresía VIP!
Todos los posts vivos con links de Mega y Google Drive.
Todo el material de Club-HD desbloqueado y sin publicidad.

Click Aquí para más información.




Para ver este contenido oculto, debes dar click en una de las siguientes reacciones : Like Like, Love Love, Haha Haha, Wow Wow, Sad Sad, Angry Angry
Opción 2



Para ver este contenido oculto, debes dar click en una de las siguientes reacciones : Like Like, Love Love, Haha Haha, Wow Wow, Sad Sad, Angry Angry
 
Última edición por un moderador:

Usuarios Que Están Viendo Este Tema (Total: 1, Miembros: 0, Invitados: 1)

Arriba