I Am Number Four (2011) m-1080p Dual Latino-Inglés [Subt. Esp] (Ciencia ficción)

Maestro Revolver

Well-known member
Miembro del Staff
Administrador
Registro
9 Ago 2012
Mensajes
3.569
Reacciones
59.366
Puntos
113

Reputation:









TÍTULO ORIGINAL: I Am Number Four
AÑO: 2012
DURACIÓN: 102 min.
PAÍS: USA
DIRECTOR: D.J. Caruso
GUIÓN: Al Gough, Miles Millar (Novela: Pittacus Lore)
REPARTO: Alex Pettyfer, Timothy Olyphant, Dianna Agron, Teresa Palmer, Kevin Durand, Callan McAuliffe, Jake Abel, Garrett M. Brown, Brian Howe
PRODUCTORA: DreamWorks Pictures / Reliance Big Entertainment / Bay Films
GÉNERO: Ciencia ficción. Romance | Extraterrestres. Adolescencia
: http://www.imdb.com/title/tt1464540/






Después de que su mundo haya sido destruido por seres de otro planeta, nueve jóvenes alienígenas se esconden de la Tierra. Uno de ellos, el cuarto del grupo y que se hace llamar John Smith (Alex Pettyfer), descubre que no está a salvo: sus enemigos se encuentran en la Tierra, han acabado con los tres anteriores, y le siguen los pasos para dar con él. Para intentar no ser descubierto el joven cuenta con la ayuda de un guardián que le protege, Henri (Timothy Olyphant). Siempre huyendo los dos haciéndose pasar por padre e hijo, el nuevo destino de ambos es Paradise, un pequeño pueblo de Ohio donde John conoce a la joven Sara (Dianna Agron), por la que pronto comienza a sentir una gran atracción.
























La pelicula NO tiene ninguna marca... solo colocamos el nombre de esta web en las capturas






Código:
General
Format                                   : Matroska
Format version                           : Version 2
File size                                : 3.83 GiB
Duration                                 : 1h 49mn
Overall bit rate                         : 5 007 Kbps
Movie name                               : www.club-hd.com
Encoded date                             : UTC 2013-04-06 02:22:52
Writing application                      : mkvmerge v5.7.0 ('The Whirlwind') built on Jul  8 2012 20:08:51
Writing library                          : libebml v1.2.3 + libmatroska v1.3.0

Video
ID                                       : 1
Format                                   : AVC
Format/Info                              : Advanced Video Codec
Format profile                           : Main@L4.0
Format settings, CABAC                   : Yes
Format settings, ReFrames                : 4 frames
Codec ID                                 : V_MPEG4/ISO/AVC
Duration                                 : 1h 49mn
Bit rate                                 : 3 627 Kbps
Width                                    : 1 920 pixels
Height                                   : 1 036 pixels
Display aspect ratio                     : 1.85:1
Frame rate mode                          : Constant
Frame rate                               : 23.976 fps
Color space                              : YUV
Chroma subsampling                       : 4:2:0
Bit depth                                : 8 bits
Scan type                                : Progressive
Bits/(Pixel*Frame)                       : 0.076
Stream size                              : 2.78 GiB (72%)
Title                                    : www.club-hd.com
Writing library                          : x264 core 112
Language                                 : English
Default                                  : Yes
Forced                                   : No
Color primaries                          : BT.709
Transfer characteristics                 : BT.709
Matrix coefficients                      : BT.709

Audio #1
ID                                       : 2
Format                                   : AC-3
Format/Info                              : Audio Coding 3
Mode extension                           : CM (complete main)
Format settings, Endianness              : Big
Codec ID                                 : A_AC3
Duration                                 : 1h 49mn
Bit rate mode                            : Constant
Bit rate                                 : 640 Kbps
Channel(s)                               : 6 channels
Channel positions                        : Front: L C R, Side: L R, LFE
Sampling rate                            : 48.0 KHz
Bit depth                                : 16 bits
Compression mode                         : Lossy
Stream size                              : 502 MiB (13%)
Title                                    : www.club-hd.com  >>  Latino
Language                                 : Spanish
Default                                  : Yes
Forced                                   : No

Audio #2
ID                                       : 3
Format                                   : AC-3
Format/Info                              : Audio Coding 3
Mode extension                           : CM (complete main)
Format settings, Endianness              : Big
Codec ID                                 : A_AC3
Duration                                 : 1h 49mn
Bit rate mode                            : Constant
Bit rate                                 : 640 Kbps
Channel(s)                               : 6 channels
Channel positions                        : Front: L C R, Side: L R, LFE
Sampling rate                            : 48.0 KHz
Bit depth                                : 16 bits
Compression mode                         : Lossy
Stream size                              : 502 MiB (13%)
Title                                    : www.club-hd.com  >>  Inglés
Language                                 : English
Default                                  : No
Forced                                   : No

Text
ID                                       : 4
Format                                   : UTF-8
Codec ID                                 : S_TEXT/UTF8
Codec ID/Info                            : UTF-8 Plain Text
Language                                 : Spanish
Default                                  : No
Forced                                   : No

Menu
00:00:00.000                             : en:Chapter 1
00:04:09.249                             : en:Chapter 2
00:11:33.275                             : en:Chapter 3
00:18:00.579                             : en:Chapter 4
00:25:41.498                             : en:Chapter 5
00:30:58.231                             : en:Chapter 6
00:39:29.617                             : en:Chapter 7
00:45:30.436                             : en:Chapter 8
00:54:51.746                             : en:Chapter 9
01:03:43.528                             : en:Chapter 10
01:14:23.292                             : en:Chapter 11
01:21:59.915                             : en:Chapter 12
01:27:39.420                             : en:Chapter 13
01:32:27.708                             : en:Chapter 14
01:37:03.692                             : en:Chapter 15
01:41:56.235                             : en:Chapter 16








Enlaces de Mega y Fireload solo disponibles para Miembros VIP

Compra tu Membresía VIP y apoya a Club-HD!

ATENCIÓN! Tenemos TODO el material de Club-HD disponible por Mega y Fireload, enlaces 100% activos y online hasta la fecha

Llévate tus cuentas Mega PRO II gratis con tu membresía VIP!
Todos los posts vivos con links de Mega y Fireload.
Todo el material de Club-HD desbloqueado y sin publicidad.

Click Aquí para más información.



Para ver este contenido oculto, debes dar click en una de las siguientes reacciones : Like Like, Love Love, Haha Haha, Wow Wow, Sad Sad, Angry Angry

 
Última edición por un moderador:

rodu

New member
Registro
28 Ago 2012
Mensajes
388
Reacciones
5
Puntos
0
Ubicación
monterrey, nuevo leon

Reputation:

Desc_g_ MUCHAS GRACIAS con esta y la de escuadron anti-gangster ya tengo algo ke ver el fin de semana con la cagada de CINEMEX Y CINEPOLIS de no traer EVIL DEAD (posesion infernal) a mi ciudad (MTY) al menos ya tengo ke ver algo interesante GRACIAS :dplgar:
 

Pedrum

The Buckminster
Registro
28 Ago 2012
Mensajes
1.092
Reacciones
1.546
Puntos
113
Ubicación
Bahia Blanca

Reputation:

Que casualidad ayer la estuve buscando en la pagina porque pense que estaba... se me habia hecho la idea que la habia visto...capaz era en el viejo blog. Pero hoy ya la tenemos aqui...espectacular capo!

Saludos! victory
 

nathan8

Well-known member
Registro
27 Ago 2012
Mensajes
1.770
Reacciones
349
Puntos
83
Edad
32

Reputation:

a descargarla buenicima esta peli.
 

zacygal

Well-known member
Registro
3 Sep 2012
Mensajes
1.515
Reacciones
1.536
Puntos
113
Edad
49

Reputation:

leyendo la Sinopsis, va para delante me la llevo, grax Maestro ...
 

MorlanGilmour

Active member
Registro
11 Sep 2012
Mensajes
472
Reacciones
99
Puntos
28
Ubicación
Mexico

Reputation:

UFFFFFFFFF !!! carajo R21 muchisimas gracias, esta pelicula me gusta un buen aparte de que sale Diana Agron :3
 

Usuarios Que Están Viendo Este Tema (Total: 1, Miembros: 0, Invitados: 1)

Arriba