I Am Sam (2001) m-720p Dual Latino-Inglés [Subt. Esp] (Drama)

Maestro Revolver

Well-known member
Miembro del Staff
Administrador
Registro
9 Ago 2012
Mensajes
3.569
Reacciones
59.361
Puntos
113

Reputation:









TÍTULO ORIGINAL: I Am Sam
AÑO: 2001
DURACIÓN: 132 min.
PAÍS: USA
DIRECTOR: Jessie Nelson
GUIÓN: Jessie Nelson & Kristine Johnson
REPARTO: Sean Penn, Michelle Pfeiffer, Laura Dern, Dianne Wiest, Dakota Fanning, Joseph Rosenberg, Richard Schiff, Loretta Devine, Elle Fanning, Kathleen Robertson, Doug Hutchison
PRODUCTORA: New Line Cinema
GÉNERO: Drama | Discapacidad. Familia
: http://www.imdb.es/title/tt0277027/

PREMIOS: 2001: 1 nominación al Oscar: Mejor actor (Sean Penn)
2001: Critics' Choice Awards: Mejor intérprete joven (Dakota Fanning). 2 nominaciones






Sam Dawson (Sean Penn) es un deficiente mental que deberá luchar por conservar la custodia de su pequeña hija, ya que el Estado considera que no está capacitado para hacerse cargo de su educación. De su defensa se encargará una prestigiosa abogada, Rita Harrison (Michelle Pfeiffer), cuyo desinterés y frialdad inicial cambiarán tras conocer a Sam, descubrir el amor que siente por su hija y comprobar su determinación por defender sus derechos como padre.
























La pelicula NO tiene ninguna marca... solo colocamos el nombre de esta web en las capturas






Código:
General
Format                                   : Matroska
Format version                           : Version 2
File size                                : 3.49 GiB
Duration                                 : 2h 12mn
Overall bit rate                         : 3 775 Kbps
Movie name                               : www.club-hd.com
Encoded date                             : UTC 2013-02-09 23:12:30
Writing application                      : mkvmerge v5.7.0 ('The Whirlwind') built on Jul  8 2012 20:08:51
Writing library                          : libebml v1.2.3 + libmatroska v1.3.0

Video
ID                                       : 1
Format                                   : AVC
Format/Info                              : Advanced Video Codec
Format profile                           : High@L4.1
Format settings, CABAC                   : Yes
Format settings, ReFrames                : 9 frames
Codec ID                                 : V_MPEG4/ISO/AVC
Duration                                 : 2h 12mn
Bit rate                                 : 2 879 Kbps
Width                                    : 1 280 pixels
Height                                   : 692 pixels
Display aspect ratio                     : 1.85:1
Frame rate mode                          : Constant
Frame rate                               : 23.976 fps
Color space                              : YUV
Chroma subsampling                       : 4:2:0
Bit depth                                : 8 bits
Scan type                                : Progressive
Bits/(Pixel*Frame)                       : 0.136
Stream size                              : 2.59 GiB (74%)
Title                                    : www.club-hd.com
Writing library                          : x264 core 129 r2245 bc13772
Language                                 : English
Default                                  : Yes
Forced                                   : No

Audio #1
ID                                       : 2
Format                                   : AC-3
Format/Info                              : Audio Coding 3
Mode extension                           : CM (complete main)
Format settings, Endianness              : Big
Codec ID                                 : A_AC3
Duration                                 : 2h 12mn
Bit rate mode                            : Constant
Bit rate                                 : 256 Kbps
Channel(s)                               : 2 channels
Channel positions                        : Front: L R
Sampling rate                            : 48.0 KHz
Bit depth                                : 16 bits
Compression mode                         : Lossy
Stream size                              : 242 MiB (7%)
Title                                    : www.club-hd.com  >>  Latino
Language                                 : Spanish
Default                                  : Yes
Forced                                   : No

Audio #2
ID                                       : 3
Format                                   : AC-3
Format/Info                              : Audio Coding 3
Mode extension                           : CM (complete main)
Format settings, Endianness              : Big
Codec ID                                 : A_AC3
Duration                                 : 2h 12mn
Bit rate mode                            : Constant
Bit rate                                 : 640 Kbps
Channel(s)                               : 6 channels
Channel positions                        : Front: L C R, Side: L R, LFE
Sampling rate                            : 48.0 KHz
Bit depth                                : 16 bits
Compression mode                         : Lossy
Stream size                              : 606 MiB (17%)
Title                                    : www.club-hd.com  >>  Inglés
Language                                 : English
Default                                  : No
Forced                                   : No

Text
ID                                       : 4
Format                                   : UTF-8
Codec ID                                 : S_TEXT/UTF8
Codec ID/Info                            : UTF-8 Plain Text
Language                                 : Spanish
Default                                  : No
Forced                                   : No

Menu
00:00:00.000                             : en:Chapter 1
00:05:28.954                             : en:Chapter 2
00:09:19.017                             : en:Chapter 3
00:19:21.994                             : en:Chapter 4
00:27:56.967                             : en:Chapter 5
00:35:41.723                             : en:Chapter 6
00:42:12.780                             : en:Chapter 7
00:51:53.527                             : en:Chapter 8
01:00:11.691                             : en:Chapter 9
01:08:49.917                             : en:Chapter 10
01:17:31.272                             : en:Chapter 11
01:26:24.262                             : en:Chapter 12
01:34:13.857                             : en:Chapter 13
01:44:16.584                             : en:Chapter 14
01:51:09.204                             : en:Chapter 15
02:03:44.500                             : en:Chapter 16










Enlaces de Mega y Fireload solo disponibles para Miembros VIP

Compra tu Membresía VIP y apoya a Club-HD!

ATENCIÓN! Tenemos TODO el material de Club-HD disponible por Mega y Fireload, enlaces 100% activos y online hasta la fecha

Llévate tus cuentas Mega PRO II gratis con tu membresía VIP!
Todos los posts vivos con links de Mega y Fireload.
Todo el material de Club-HD desbloqueado y sin publicidad.

Click Aquí para más información.




Enlaces de Mega y Fireload solo disponibles para Miembros VIP

Compra tu Membresía VIP y apoya a Club-HD!

ATENCIÓN! Tenemos TODO el material de Club-HD disponible por Mega y Fireload, enlaces 100% activos y online hasta la fecha

Llévate tus cuentas Mega PRO II gratis con tu membresía VIP!
Todos los posts vivos con links de Mega y Fireload.
Todo el material de Club-HD desbloqueado y sin publicidad.

Click Aquí para más información.



Para ver este contenido oculto, debes dar click en una de las siguientes reacciones : Like Like, Love Love, Haha Haha, Wow Wow, Sad Sad, Angry Angry

 
Última edición:

trailblazer 2.0

Well-known member
Miembro del Staff
Súper Moderador
Registro
28 Ago 2012
Mensajes
2.787
Reacciones
1.120
Puntos
113
Ubicación
Ciudad Macross

Reputation:

gracias master, mi esposa la queria ver hace tiempo, solo falta que se la descargue :crcjd:
 

Yonatan

Admin
Miembro del Staff
Administrador
Registro
27 Ago 2012
Mensajes
1.768
Reacciones
3.729
Puntos
113
Edad
28
Ubicación
Chile, Sexta Región

Reputation:

Esta pelicula nunca la he visto, siempre hay una primera vez para todo xD
 

Mate78

Ladron de mi cerebro
Miembro del Staff
Súper Moderador
Registro
27 Ago 2012
Mensajes
1.235
Reacciones
918
Puntos
113

Reputation:

Hermosa pelicula , exclusivo CLUB-HD !!!!!gracias Bestia :dplgar:
 

arkkangeldark

Well-known member
Registro
27 Ago 2012
Mensajes
3.445
Reacciones
576
Puntos
113
Edad
34
Ubicación
Torreon Coahuila

Reputation:

es una de las grandes peliculas, gracias revolver hace mucho tiempo que no la veia, ahora a disfrutarla en hd, saludos
 

CompuMax

New member
Registro
28 Ago 2012
Mensajes
326
Reacciones
9
Puntos
0
Ubicación
Caracas, Venezuela
Sitio web
hd-latino.co.nf

Reputation:

Como siempre con los mejores aportes!
Lastima que no pueda formar parte de tan excelente staff!
Como muchas veces he mencionado tengo muuuchas peliculas que aun no estan en la página y estaría complacido de compartir!

PD: No necesariamente debo acceder a sus cuentas premiums. Puedo subirlas a karelia el cual es un servidor gratis que te da acceso premium a los archivos sin restrinciones y a alta velocidad para que ustedes las bajen, las prueben, califiquen y si deciden las suban.

Como siempre saludos y gracias por todos sus aportes y esfuerzo por seguir compartiendo cada día!

CompuMax
 

Rob Stark

New member
Registro
28 Ago 2012
Mensajes
243
Reacciones
29
Puntos
0
Edad
31

Reputation:

Desde hace tiempo la andube buscando en HD gracias por subirla :dplgar:
 

danigar93

Member
Registro
22 Oct 2012
Mensajes
406
Reacciones
18
Puntos
18
Edad
32

Reputation:

Excelentísima película, muchas gracias, para la colección.
 

Usuarios Que Están Viendo Este Tema (Total: 1, Miembros: 0, Invitados: 1)

Arriba