Ice Age: Continental Drift (2012) m-720p Dual Latino-Inglés [Subt. Esp-Ing] (Animación)

Maestro Revolver

Well-known member
Miembro del Staff
Administrador
Registro
9 Ago 2012
Mensajes
3.567








TÍTULO ORIGINAL: Ice Age: Continental Drift (Ice Age 4)
AÑO: 2012
DURACIÓN: 94 min.
PAÍS: USA
DIRECTOR: Steve Martino, Mike Thurmeier
GUIÓN: Michael Berg, Jason Fuchs, Mike Reiss
REPARTO: Animation
PRODUCTORA: Blue Sky Studios
GÉNERO: Animación. Aventuras. Comedia. Infantil | Prehistoria. Piratas. Secuela
http://www.imdb.com/title/tt1667889/





La loca persecución de Scrat por su escurridiza bellota desde el principio de los tiempos, tiene consecuencias que cambiarán el mundo: un cataclismo continental que desencadenará la mayor de las aventuras para Manny, Diego y Sid. En medio de estas agitaciones, Sid se reencuentra con su Abuelita Gruñona y la manada tropieza con una extraña cuadrilla de piratas de altamar decididos a impedirles su regreso a casa.
























La pelicula NO tiene ninguna marca... solo colocamos el nombre de esta web en las capturas






Código:
General
Format                           : Matroska
Format version                   : Version 2
File size                        : 2.28 GiB
Duration                         : 1h 27mn
Overall bit rate                 : 3 714 Kbps
Movie name                       : www.club-hd.com
Encoded date                     : UTC 2012-10-17 01:56:29
Writing application              : mkvmerge v5.7.0 ('The Whirlwind') built on Jul  8 2012 20:08:51
Writing library                  : libebml v1.2.3 + libmatroska v1.3.0

Video
ID                               : 1
Format                           : AVC
Format/Info                      : Advanced Video Codec
Format profile                   : High@L4.1
Format settings, CABAC           : Yes
Format settings, ReFrames        : 8 frames
Codec ID                         : V_MPEG4/ISO/AVC
Duration                         : 1h 27mn
Bit rate                         : 2 625 Kbps
Width                            : 1 280 pixels
Height                           : 534 pixels
Display aspect ratio             : 2.40:1
Frame rate                       : 23.976 fps
Color space                      : YUV
Chroma subsampling               : 4:2:0
Bit depth                        : 8 bits
Scan type                        : Progressive
Bits/(Pixel*Frame)               : 0.160
Stream size                      : 1.56 GiB (69%)
Title                            : www.club-hd.com
Writing library                  : x264 core 128 r2216 198a7ea
Language                         : English
Default                          : Yes
Forced                           : No

Audio #1
ID                               : 2
Format                           : AC-3
Format/Info                      : Audio Coding 3
Mode extension                   : CM (complete main)
Codec ID                         : A_AC3
Duration                         : 1h 27mn
Bit rate mode                    : Constant
Bit rate                         : 448 Kbps
Channel(s)                       : 6 channels
Channel positions                : Front: L C R, Side: L R, LFE
Sampling rate                    : 48.0 KHz
Bit depth                        : 16 bits
Compression mode                 : Lossy
Stream size                      : 281 MiB (12%)
Title                            : www.club-hd.com  >>  Latino
Language                         : Spanish
Default                          : Yes
Forced                           : No

Audio #2
ID                               : 3
Format                           : AC-3
Format/Info                      : Audio Coding 3
Mode extension                   : CM (complete main)
Codec ID                         : A_AC3
Duration                         : 1h 27mn
Bit rate mode                    : Constant
Bit rate                         : 640 Kbps
Channel(s)                       : 6 channels
Channel positions                : Front: L C R, Side: L R, LFE
Sampling rate                    : 48.0 KHz
Bit depth                        : 16 bits
Compression mode                 : Lossy
Stream size                      : 402 MiB (17%)
Title                            : www.club-hd.com  >>  Inglés
Language                         : English
Default                          : No
Forced                           : No

Text #1
ID                               : 4
Format                           : UTF-8
Codec ID                         : S_TEXT/UTF8
Codec ID/Info                    : UTF-8 Plain Text
Language                         : Spanish
Default                          : No
Forced                           : No

Text #2
ID                               : 5
Format                           : UTF-8
Codec ID                         : S_TEXT/UTF8
Codec ID/Info                    : UTF-8 Plain Text
Language                         : English
Default                          : No
Forced                           : No

Menu
00:00:00.000                     : en:Chapter 1
00:03:24.037                     : en:Chapter 2
00:05:07.224                     : en:Chapter 3
00:09:33.406                     : en:Chapter 4
00:13:08.705                     : en:Chapter 5
00:15:55.329                     : en:Chapter 6
00:18:22.643                     : en:Chapter 7
00:22:23.717                     : en:Chapter 8
00:25:56.555                     : en:Chapter 9
00:29:17.965                     : en:Chapter 10
00:32:57.601                     : en:Chapter 11
00:36:14.381                     : en:Chapter 12
00:38:41.653                     : en:Chapter 13
00:43:48.709                     : en:Chapter 14
00:45:29.644                     : en:Chapter 15
00:49:38.976                     : en:Chapter 16
00:53:49.476                     : en:Chapter 17
00:57:22.856                     : en:Chapter 18
01:02:31.039                     : en:Chapter 19
01:08:08.334                     : en:Chapter 20
01:11:10.475                     : en:Chapter 21
01:13:14.640                     : en:Chapter 22
01:16:53.400                     : en:Chapter 23
01:19:23.634                     : en:Chapter 24











Enlaces de Mega y Google Drive solo disponibles para Miembros VIP

Compra tu Membresía VIP y apoya a Club-HD!

ATENCIÓN! Tenemos TODO el material de Club-HD disponible por Mega y Google Drive, enlaces 100% activos y online hasta la fecha

Llévate tus cuentas Mega PRO III gratis con tu membresía VIP!
Todos los posts vivos con links de Mega y Google Drive.
Todo el material de Club-HD desbloqueado y sin publicidad.

Click Aquí para más información.



Enlaces de Mega y Google Drive solo disponibles para Miembros VIP

Compra tu Membresía VIP y apoya a Club-HD!

ATENCIÓN! Tenemos TODO el material de Club-HD disponible por Mega y Google Drive, enlaces 100% activos y online hasta la fecha

Llévate tus cuentas Mega PRO III gratis con tu membresía VIP!
Todos los posts vivos con links de Mega y Google Drive.
Todo el material de Club-HD desbloqueado y sin publicidad.

Click Aquí para más información.


Para ver este contenido oculto, debes dar click en una de las siguientes reacciones : Like Like, Love Love, Haha Haha, Wow Wow, Sad Sad, Angry Angry

 
Última edición:

arkkangeldark

Well-known member
Registro
27 Ago 2012
Mensajes
3.500
Edad
35
Ubicación
Torreon Coahuila
excelente revolver a bajar esta y pues a esperar estos dias la de the amazing spiderman que se me hace raro que faltan menos de 3 semanas su lanzamiento todavia no se consiga en la red
 

Nosferatu

Well-known member
Miembro del Staff
Súper Moderador
Miembro VIP
Registro
31 Ago 2012
Mensajes
2.275
Edad
45
Ubicación
Welcome to Hell!!
Excelente maestro, ya no pueden pedir mas ya estan las 3 versiones ( exquisitas ).:LXR::aplausos:

1000 GRACIAS REVOLVER21! :LXR::LXR::dplgar:
 

Usuarios Que Están Viendo Este Tema (Total: 1, Miembros: 0, Invitados: 1)

Quién Leyó Este Tema (Total Miembros: 1)

Arriba