Imaginaerum (2012) 720p BDRip Audio Inglés [Subt. Esp] (Fantástico) + Extras

Max

Admin
Miembro del Staff
Administrador
Miembro VIP
Registro
8 Ago 2012
Mensajes
6.001
Ubicación
Disco C
Aporte recuperado gracias a nuestro amigo vakanime




Título original: Imaginaerum
Año: 2012
Duración: 82 min.
País: Finlandia
Director: Stobe Harju
Guión: Stobe Harju, Mikko Rautalahti
Música: Petri Alanko, Nightwish
Fotografía: Benoit Beaulieu
Reparto: Marianne Farley, Quinn Lord, Francis X. McCarthy
Productora: Coproducción Finlandia-Canadá; Scene Nation / Solar Films / Caramel Film
Género: Fantástico | Surrealismo

http://www.imdb.com/title/tt1959409/






Cuenta la historia de un viejo en el lecho de muerte que recupera un sueño de la infancia en el que se niega a envejecer, y combate el envejecimiento con su imaginación.



































Código:
General
Complete name                            : Imaginaerum (2012) 720p BDRip Audio Inglés [Subt. Esp].mkv
Format                                   : Matroska
Format version                           : Version 2
File size                                : 2.60 GiB
Duration                                 : 1h 25mn
Overall bit rate                         : 4 338 Kbps
Movie name                               : www.club-hd.com --> Imaginaerum (2012) 720p BDRip Audio Inglés [Subt. Esp]
Encoded date                             : UTC 2013-09-13 04:27:06
Writing application                      : mkvmerge v5.8.0 ('No Sleep / Pillow') built on Sep  2 2012 15:37:04
Writing library                          : libebml v1.2.3 + libmatroska v1.3.0

Video
ID                                       : 1
Format                                   : AVC
Format/Info                              : Advanced Video Codec
Format profile                           : High@L4.1
Format settings, CABAC                   : Yes
Format settings, ReFrames                : 3 frames
Muxing mode                              : Header stripping
Codec ID                                 : V_MPEG4/ISO/AVC
Duration                                 : 1h 25mn
Bit rate                                 : 3 803 Kbps
Nominal bit rate                         : 4 000 Kbps
Width                                    : 1 280 pixels
Height                                   : 560 pixels
Display aspect ratio                     : 2.35:1
Frame rate mode                          : Constant
Frame rate                               : 23.976 fps
Color space                              : YUV
Chroma subsampling                       : 4:2:0
Bit depth                                : 8 bits
Scan type                                : Progressive
Bits/(Pixel*Frame)                       : 0.221
Stream size                              : 2.28 GiB (88%)
Title                                    : Imaginaerum (2012) 720p BDRip Audio Inglés [Subt. Esp]
Writing library                          : x264 core 120
Encoding settings                        : cabac=1 / ref=4 / deblock=1:-2:-2 / analyse=0x3:0x133 / me=umh / subme=10 / psy=1 / psy_rd=1.00:0.00 / mixed_ref=1 / me_range=24 / chroma_me=1 / trellis=2 / 8x8dct=1 / cqm=0 / deadzone=21,11 / fast_pskip=1 / chroma_qp_offset=-2 / threads=24 / sliced_threads=0 / nr=0 / decimate=1 / interlaced=0 / bluray_compat=0 / constrained_intra=0 / bframes=3 / b_pyramid=1 / b_adapt=1 / b_bias=0 / direct=1 / weightb=1 / open_gop=0 / weightp=2 / keyint=240 / keyint_min=24 / scenecut=40 / intra_refresh=0 / rc_lookahead=50 / rc=abr / mbtree=1 / bitrate=4000 / ratetol=1.0 / qcomp=0.60 / qpmin=3 / qpmax=69 / qpstep=4 / ip_ratio=1.40 / aq=1:1.00
Language                                 : English
Default                                  : Yes
Forced                                   : No
Color primaries                          : BT.709
Transfer characteristics                 : BT.709
Matrix coefficients                      : BT.709

Audio
ID                                       : 2
Format                                   : AC-3
Format/Info                              : Audio Coding 3
Mode extension                           : CM (complete main)
Format settings, Endianness              : Big
Muxing mode                              : Header stripping
Codec ID                                 : A_AC3
Duration                                 : 1h 25mn
Bit rate mode                            : Constant
Bit rate                                 : 448 Kbps
Channel(s)                               : 6 channels
Channel positions                        : Front: L C R, Side: L R, LFE
Sampling rate                            : 48.0 KHz
Bit depth                                : 16 bits
Compression mode                         : Lossy
Stream size                              : 275 MiB (10%)
Title                                    : Imaginaerum (2012) - Inglés AC3 5.1
Language                                 : English
Default                                  : Yes
Forced                                   : No

Text
ID                                       : 3
Format                                   : UTF-8
Codec ID                                 : S_TEXT/UTF8
Codec ID/Info                            : UTF-8 Plain Text
Title                                    : Imaginaerum (2012) - Subtítulos Español
Language                                 : Spanish
Default                                  : Yes
Forced                                   : No





¡Te invitamos a descargar esta super película en su versión 1080p mejorada con sus Super Extras incluidos! :aplausos:

Imaginaerum (2012) 1080p BDRip Audio Inglés [DTS MA 7.1] [Subt. Esp] (Fantástico) + Extras






CONTRASEÑA







ENLACES VIP


Enlaces de Mega y Google Drive solo disponibles para Miembros VIP

Compra tu Membresía VIP y apoya a Club-HD!

ATENCIÓN! Tenemos TODO el material de Club-HD disponible por Mega y Google Drive, enlaces 100% activos y online hasta la fecha

Llévate tus cuentas Mega PRO III gratis con tu membresía VIP!
Todos los posts vivos con links de Mega y Google Drive.
Todo el material de Club-HD desbloqueado y sin publicidad.

Click Aquí para más información.
 
Última edición por un moderador:

Usuarios Que Están Viendo Este Tema (Total: 1, Miembros: 0, Invitados: 1)

Quién Leyó Este Tema (Total Miembros: 2)

Arriba