• Este aviso va dirigido a todos los nuevos miembros recien llegados a Club-HD. Les recordamos que la direccion URL de este sitio web es , asi que deben acceder únicamente por esta URL. Sean todos bienvenidos al Club!

Infamous (2020) 1080p AMZN WEB-DL Inglés [Subt. Esp] (Acción)

Dante Inferno

🔥Dante Inferno🔥
Miembro del Staff
Moderador
Uploader
Registrado
24 May 2016
Mensajes
585
Puntos de reacción
11,477
Puntos
93
Ubicación
Argentina
Sitio web
club-hd.com



SINOPSIS

Arielle (Thorne) es una chica de un pueblo pequeño que sueña con hacerse famosa a toda costa. Un día conoce a Dean (Manley), un joven ex convicto, y ambos tienen una conexión instantánea. Tras un accidente fatal ambos se ven obligados a huir. ¿Su plan para financiar su viaje? Robar gasolineras y pequeñas tiendas. Pero el ansia de notoriedad de Arielle la llevará a transmitir en vivo sus robos por Internet, y las dos se convierten en una sensación viral en las redes sociales a medida que su sueño se vuelve sangriento y violento.

MÁS INFORMACIÓN




TRAILER



CAPTURAS






MEDIAINFO

Código:
General
Complete name                            : Infamous (2020) 1080p AMZN WEB-DL Inglés [Subt. Esp].mkv
Format                                   : Matroska
Format version                           : Version 4
File size                                : 5.61 GiB
Duration                                 : 1 h 40 min
Overall bit rate                         : 8 007 kb/s
Movie name                               : Infamous (2020) 1080p AMZN WEB-DL Inglés [Subt. Esp] [www.club-hd.com]
Encoded date                             : UTC 2020-06-24 23:11:35
Writing application                      : mkvmerge v27.0.0 ('Metropolis') 64-bit
Writing library                          : libebml v1.3.6 + libmatroska v1.4.9

Video
ID                                       : 1
Format                                   : AVC
Format/Info                              : Advanced Video Codec
Format profile                           : High@L4
Format settings                          : CABAC / 4 Ref Frames
Format settings, CABAC                   : Yes
Format settings, Reference frames        : 4 frames
Codec ID                                 : V_MPEG4/ISO/AVC
Duration                                 : 1 h 40 min
Bit rate mode                            : Constant
Bit rate                                 : 7 365 kb/s
Nominal bit rate                         : 10 000 kb/s
Width                                    : 1 920 pixels
Height                                   : 1 080 pixels
Display aspect ratio                     : 16:9
Frame rate mode                          : Constant
Frame rate                               : 23.976 (24000/1001) FPS
Color space                              : YUV
Chroma subsampling                       : 4:2:0
Bit depth                                : 8 bits
Scan type                                : Progressive
Bits/(Pixel*Frame)                       : 0.148
Stream size                              : 5.16 GiB (92%)
Title                                    : Infamous (2020) 1080p AMZN WEB-DL Inglés [Subt. Esp]
Language                                 : English
Default                                  : Yes
Forced                                   : No
Color range                              : Limited
Color primaries                          : BT.709
Transfer characteristics                 : BT.709
Matrix coefficients                      : BT.709

Audio
ID                                       : 2
Format                                   : E-AC-3
Format/Info                              : Enhanced AC-3
Commercial name                          : Dolby Digital Plus
Codec ID                                 : A_EAC3
Duration                                 : 1 h 40 min
Bit rate mode                            : Constant
Bit rate                                 : 640 kb/s
Channel(s)                               : 6 channels
Channel layout                           : L R C LFE Ls Rs
Sampling rate                            : 48.0 kHz
Frame rate                               : 31.250 FPS (1536 SPF)
Compression mode                         : Lossy
Stream size                              : 460 MiB (8%)
Title                                    : Inglés
Language                                 : English
Service kind                             : Complete Main
Default                                  : Yes
Forced                                   : No

Text
ID                                       : 3
Format                                   : UTF-8
Codec ID                                 : S_TEXT/UTF8
Codec ID/Info                            : UTF-8 Plain Text
Duration                                 : 1 h 36 min
Bit rate                                 : 53 b/s
Count of elements                        : 1175
Stream size                              : 37.7 KiB (0%)
Title                                    : Subtítulos Español
Language                                 : Spanish
Default                                  : Yes
Forced                                   : No

CONTRASEÑA



DESCARGAR

Todos los links son Intercambiables




Enlaces de Mega y Google Drive solo disponibles para Miembros VIP

Compra tu Membresía VIP y apoya a Club-HD!

ATENCIÓN! Tenemos TODO el material de Club-HD disponible por Mega y Google Drive, enlaces 100% activos y online hasta la fecha

Llévate tus cuentas Mega PRO II gratis con tu membresía VIP!
Todos los posts vivos con links de Mega y Google Drive.
Todo el material de Club-HD desbloqueado y sin publicidad.

Click Aquí para más información.



Enlaces de Mega y Google Drive solo disponibles para Miembros VIP

Compra tu Membresía VIP y apoya a Club-HD!

ATENCIÓN! Tenemos TODO el material de Club-HD disponible por Mega y Google Drive, enlaces 100% activos y online hasta la fecha

Llévate tus cuentas Mega PRO II gratis con tu membresía VIP!
Todos los posts vivos con links de Mega y Google Drive.
Todo el material de Club-HD desbloqueado y sin publicidad.

Click Aquí para más información.



Para ver este contenido oculto, debes dar click en una de las siguientes reacciones: Like Like, Love Love, Haha Haha, Wow Wow, Sad Sad, Angry Angry



Para ver este contenido oculto, debes dar click en una de las siguientes reacciones: Like Like, Love Love, Haha Haha, Wow Wow, Sad Sad, Angry Angry



Para ver este contenido oculto, debes dar click en una de las siguientes reacciones: Like Like, Love Love, Haha Haha, Wow Wow, Sad Sad, Angry Angry



Para ver este contenido oculto, debes dar click en una de las siguientes reacciones: Like Like, Love Love, Haha Haha, Wow Wow, Sad Sad, Angry Angry
 

rachi

Active member
Registrado
21 Jul 2018
Mensajes
650
Puntos de reacción
66
Puntos
28
Gracias por el aporte
 

cripp

Well-known member
Registrado
27 Ago 2012
Mensajes
8,059
Puntos de reacción
463
Puntos
113
Gracias por compartir
 

opv_2011

Active member
Registrado
3 Feb 2016
Mensajes
732
Puntos de reacción
42
Puntos
28
Edad
47



SINOPSIS

Arielle (Thorne) es una chica de un pueblo pequeño que sueña con hacerse famosa a toda costa. Un día conoce a Dean (Manley), un joven ex convicto, y ambos tienen una conexión instantánea. Tras un accidente fatal ambos se ven obligados a huir. ¿Su plan para financiar su viaje? Robar gasolineras y pequeñas tiendas. Pero el ansia de notoriedad de Arielle la llevará a transmitir en vivo sus robos por Internet, y las dos se convierten en una sensación viral en las redes sociales a medida que su sueño se vuelve sangriento y violento.

MÁS INFORMACIÓN




TRAILER



CAPTURAS






MEDIAINFO

Código:
General
Complete name                            : Infamous (2020) 1080p AMZN WEB-DL Inglés [Subt. Esp].mkv
Format                                   : Matroska
Format version                           : Version 4
File size                                : 5.61 GiB
Duration                                 : 1 h 40 min
Overall bit rate                         : 8 007 kb/s
Movie name                               : Infamous (2020) 1080p AMZN WEB-DL Inglés [Subt. Esp] [www.club-hd.com]
Encoded date                             : UTC 2020-06-24 23:11:35
Writing application                      : mkvmerge v27.0.0 ('Metropolis') 64-bit
Writing library                          : libebml v1.3.6 + libmatroska v1.4.9

Video
ID                                       : 1
Format                                   : AVC
Format/Info                              : Advanced Video Codec
Format profile                           : High@L4
Format settings                          : CABAC / 4 Ref Frames
Format settings, CABAC                   : Yes
Format settings, Reference frames        : 4 frames
Codec ID                                 : V_MPEG4/ISO/AVC
Duration                                 : 1 h 40 min
Bit rate mode                            : Constant
Bit rate                                 : 7 365 kb/s
Nominal bit rate                         : 10 000 kb/s
Width                                    : 1 920 pixels
Height                                   : 1 080 pixels
Display aspect ratio                     : 16:9
Frame rate mode                          : Constant
Frame rate                               : 23.976 (24000/1001) FPS
Color space                              : YUV
Chroma subsampling                       : 4:2:0
Bit depth                                : 8 bits
Scan type                                : Progressive
Bits/(Pixel*Frame)                       : 0.148
Stream size                              : 5.16 GiB (92%)
Title                                    : Infamous (2020) 1080p AMZN WEB-DL Inglés [Subt. Esp]
Language                                 : English
Default                                  : Yes
Forced                                   : No
Color range                              : Limited
Color primaries                          : BT.709
Transfer characteristics                 : BT.709
Matrix coefficients                      : BT.709

Audio
ID                                       : 2
Format                                   : E-AC-3
Format/Info                              : Enhanced AC-3
Commercial name                          : Dolby Digital Plus
Codec ID                                 : A_EAC3
Duration                                 : 1 h 40 min
Bit rate mode                            : Constant
Bit rate                                 : 640 kb/s
Channel(s)                               : 6 channels
Channel layout                           : L R C LFE Ls Rs
Sampling rate                            : 48.0 kHz
Frame rate                               : 31.250 FPS (1536 SPF)
Compression mode                         : Lossy
Stream size                              : 460 MiB (8%)
Title                                    : Inglés
Language                                 : English
Service kind                             : Complete Main
Default                                  : Yes
Forced                                   : No

Text
ID                                       : 3
Format                                   : UTF-8
Codec ID                                 : S_TEXT/UTF8
Codec ID/Info                            : UTF-8 Plain Text
Duration                                 : 1 h 36 min
Bit rate                                 : 53 b/s
Count of elements                        : 1175
Stream size                              : 37.7 KiB (0%)
Title                                    : Subtítulos Español
Language                                 : Spanish
Default                                  : Yes
Forced                                   : No

CONTRASEÑA




DESCARGAR

Todos los links son Intercambiables




[Hidden content]




[Hidden content]




[Hidden content]




[Hidden content]




[Hidden content]




[Hidden content]
Gracias por la película!
 

ERRE

Well-known member
Registrado
28 Ago 2012
Mensajes
2,213
Puntos de reacción
167
Puntos
63
Gracias... 😄
 

Usuarios Que Están Viendo Este Tema (Total: 1, Miembros: 0, Invitados: 1)

Arriba