Infinite (2021) 1080p BDRip Dual Latino-Inglés (Ciencia ficción. Acción.)

Bebesaurio

Novio de Vizard
Miembro del Staff
Moderador
Uploader
Registro
12 Mar 2018
Mensajes
965
Edad
23

Rep:




Sinopsis

Evan McCauley tiene habilidades que nunca aprendió y recuerdos de lugares que nunca ha visitado. Automedicado y al borde de un colapso mental, un grupo secreto que se hace llamar "Infinitos" acuden a su rescate, revelando que sus recuerdos son reales.



MEDIAINFO
Código:
General
Unique ID                      : 240620315146923633097767724447507132842 (0xB505C979F11EDAA9F10FC39BB48FB1AA)
Format                         : Matroska
Format version                 : Version 4
File size                      : 12.6 GiB
Duration                       : 1 h 46 min
Overall bit rate mode          : Variable
Overall bit rate               : 16.9 Mb/s
Encoded date                   : UTC 2022-01-26 00:02:58
Writing application            : mkvmerge v63.0.0 ('Everything') 64-bit
Writing library                : libebml v1.4.2 + libmatroska v1.6.4

Video
ID                             : 1
Format                         : AVC
Format/Info                    : Advanced Video Codec
Format profile                 : High@L4.1
Format settings                : CABAC / 4 Ref Frames
Format settings, CABAC         : Yes
Format settings, Reference fra : 4 frames
Codec ID                       : V_MPEG4/ISO/AVC
Duration                       : 1 h 46 min
Bit rate                       : 11.5 Mb/s
Width                          : 1 920 pixels
Height                         : 804 pixels
Display aspect ratio           : 2.40:1
Frame rate mode                : Constant
Frame rate                     : 23.976 (24000/1001) FPS
Color space                    : YUV
Chroma subsampling             : 4:2:0
Bit depth                      : 8 bits
Scan type                      : Progressive
Bits/(Pixel*Frame)             : 0.311
Stream size                    : 8.53 GiB (68%)
Writing library                : x264 core 148 r2748 97eaef2
Encoding settings              : cabac=1 / ref=4 / deblock=1:-2:-2 / analyse=0x3:0x113 / me=umh / subme=9 / psy=1 / psy_rd=1.00:0.15 / mixed_ref=1 / me_range=16 / chroma_me=1 / trellis=2 / 8x8dct=1 / cqm=0 / deadzone=21,11 / fast_pskip=1 / chroma_qp_offset=-3 / threads=72 / lookahead_threads=3 / sliced_threads=0 / nr=0 / decimate=1 / interlaced=0 / bluray_compat=0 / constrained_intra=0 / bframes=3 / b_pyramid=2 / b_adapt=1 / b_bias=0 / direct=3 / weightb=1 / open_gop=0 / weightp=2 / keyint=250 / keyint_min=25 / scenecut=40 / intra_refresh=0 / rc_lookahead=50 / rc=2pass / mbtree=1 / bitrate=11500 / ratetol=1.0 / qcomp=0.60 / qpmin=0 / qpmax=69 / qpstep=4 / cplxblur=20.0 / qblur=0.5 / vbv_maxrate=31250 / vbv_bufsize=31250 / nal_hrd=none / filler=0 / ip_ratio=1.40 / aq=1:1.00
Language                       : English
Default                        : Yes
Forced                         : No

Audio #1
ID                             : 2
Format                         : MLP FBA 16-ch
Format/Info                    : Meridian Lossless Packing FBA with 16-channel presentation
Commercial name                : Dolby TrueHD with Dolby Atmos
Codec ID                       : A_TRUEHD
Duration                       : 1 h 46 min
Bit rate mode                  : Variable
Bit rate                       : 4 082 kb/s
Maximum bit rate               : 7 116 kb/s
Channel(s)                     : 8 channels
Channel layout                 : L R C LFE Ls Rs Lb Rb
Sampling rate                  : 48.0 kHz
Frame rate                     : 1 200.000 FPS (40 SPF)
Compression mode               : Lossless
Stream size                    : 3.03 GiB (24%)
Title                          : TrueHD 7.1. Atmos
Language                       : English
Default                        : Yes
Forced                         : No
Number of dynamic objects      : 11
Bed channel count              : 1 channel
Bed channel configuration      : LFE

Audio #2
ID                             : 3
Format                         : AC-3
Format/Info                    : Audio Coding 3
Commercial name                : Dolby Digital
Format settings                : Dolby Surround EX
Codec ID                       : A_AC3
Duration                       : 1 h 46 min
Bit rate mode                  : Constant
Bit rate                       : 640 kb/s
Channel(s)                     : 6 channels
Channel layout                 : L R C LFE Ls Rs
Sampling rate                  : 48.0 kHz
Frame rate                     : 31.250 FPS (1536 SPF)
Compression mode               : Lossy
Stream size                    : 487 MiB (4%)
Title                          : DD 5.1
Language                       : English
Service kind                   : Complete Main
Default                        : No
Forced                         : No

Audio #3
ID                             : 4
ID in the original source medi : 4356 (0x1104)
Format                         : AC-3
Format/Info                    : Audio Coding 3
Commercial name                : Dolby Digital
Codec ID                       : A_AC3
Duration                       : 1 h 46 min
Bit rate mode                  : Constant
Bit rate                       : 640 kb/s
Channel(s)                     : 6 channels
Channel layout                 : L R C LFE Ls Rs
Sampling rate                  : 48.0 kHz
Frame rate                     : 31.250 FPS (1536 SPF)
Compression mode               : Lossy
Stream size                    : 487 MiB (4%)
Title                          : DD 5.1
Language                       : Spanish
Service kind                   : Complete Main
Default                        : Yes
Forced                         : Yes
Original source medium         : Blu-ray

Text #1
ID                             : 5
ID in the original source medi : 4613 (0x1205)
Format                         : PGS
Muxing mode                    : zlib
Codec ID                       : S_HDMV/PGS
Codec ID/Info                  : Picture based subtitle format used on BDs/HD-DVDs
Duration                       : 1 h 45 min
Bit rate                       : 24.2 kb/s
Count of elements              : 1872
Stream size                    : 18.3 MiB (0%)
Language                       : Spanish
Default                        : No
Forced                         : No
Original source medium         : Blu-ray

Text #2
ID                             : 6
ID in the original source medi : 4613 (0x1205)
Format                         : PGS
Muxing mode                    : zlib
Codec ID                       : S_HDMV/PGS
Codec ID/Info                  : Picture based subtitle format used on BDs/HD-DVDs
Duration                       : 1 h 44 min
Bit rate                       : 258 b/s
Count of elements              : 26
Stream size                    : 198 KiB (0%)
Language                       : Spanish
Default                        : No
Forced                         : No
Original source medium         : Blu-ray

Text #3
ID                             : 7
ID in the original source medi : 4614 (0x1206)
Format                         : PGS
Muxing mode                    : zlib
Codec ID                       : S_HDMV/PGS
Codec ID/Info                  : Picture based subtitle format used on BDs/HD-DVDs
Duration                       : 1 h 45 min
Bit rate                       : 26.2 kb/s
Count of elements              : 1862
Stream size                    : 19.7 MiB (0%)
Language                       : Spanish
Default                        : No
Forced                         : No
Original source medium         : Blu-ray

Text #4
ID                             : 8
ID in the original source medi : 4614 (0x1206)
Format                         : PGS
Muxing mode                    : zlib
Codec ID                       : S_HDMV/PGS
Codec ID/Info                  : Picture based subtitle format used on BDs/HD-DVDs
Duration                       : 1 h 44 min
Bit rate                       : 240 b/s
Count of elements              : 24
Stream size                    : 184 KiB (0%)
Language                       : Spanish
Default                        : No
Forced                         : No
Original source medium         : Blu-ray

Menu
00:00:00.000                   : en:Chapter 01
00:07:49.094                   : en:Chapter 02
00:12:45.098                   : en:Chapter 03
00:18:58.554                   : en:Chapter 04
00:25:51.633                   : en:Chapter 05
00:32:25.402                   : en:Chapter 06
00:38:25.136                   : en:Chapter 07
00:46:41.007                   : en:Chapter 08
00:54:22.801                   : en:Chapter 09
01:02:59.275                   : en:Chapter 10
01:11:01.007                   : en:Chapter 11
01:19:41.443                   : en:Chapter 12
01:28:27.135                   : en:Chapter 13
01:37:44.692                   : en:Chapter 14

CAPTURAS





ENLACES VIP



Enlaces de Mega y Fireload solo disponibles para Miembros VIP

Compra tu Membresía VIP y apoya a Club-HD!

ATENCIÓN! Tenemos TODO el material de Club-HD disponible por Mega y Fireload, enlaces 100% activos y online hasta la fecha

Llévate tus cuentas Mega PRO II gratis con tu membresía VIP!
Todos los posts vivos con links de Mega y Fireload.
Todo el material de Club-HD desbloqueado y sin publicidad.

Click Aquí para más información.
ENLACES FREE



Para ver este contenido oculto, debes dar click en una de las siguientes reacciones : Like Like, Love Love, Haha Haha, Wow Wow, Sad Sad, Angry Angry


Para ver este contenido oculto, debes dar click en una de las siguientes reacciones : Like Like, Love Love, Haha Haha, Wow Wow, Sad Sad, Angry Angry

CONTRASEÑA
Código:
www.club-hd.com
 

Usuarios Que Están Viendo Este Tema (Total: 1, Miembros: 0, Invitados: 1)

Quién Leyó Este Tema (Total Miembros: 1)

Arriba