Insidious: Chapter 2 (2013) 720p BDRip Audio Inglés [Subt. Esp] (Terror)

Maestro Revolver

Well-known member
Miembro del Staff
Administrador
Registro
9 Ago 2012
Mensajes
3.567








TÍTULO ORIGINAL: Insidious: Chapter 2
AÑO: 2013
DURACIÓN: 105 min.
PAÍS: USA
DIRECTOR: James Wan
GUIÓN: Leigh Whannell (Historia: James Wan, Leigh Whannell)
REPARTO: Patrick Wilson, Rose Byrne, Lin Shaye, Ty Simpkins, Leigh Whannell, Barbara Hershey, Steve Coulter, Angus Sampson, Andrew Astor, Hank Harris, Jocelin Donahue, Lindsay Seim, Danielle Bisutti, Tyler Griffin, Garrett Ryan, Tom Fitzpatrick, J. LaRose
PRODUCTORA: Alliance Films / Blumhouse Productions / FilmDistrict
GÉNERO: Terror | Sobrenatural. Casas encantadas. Secuela
: http://www.imdb.com/title/tt2226417/






Josh y Renai Lambert se han mudado con sus hijos a la casa de Lorraine, la madre de Josh, esperando olvidar el pasado y comenzar una nueva vida. Pero pronto la familia empieza a experimentar extrañas visiones y fenómenos amenazantes que les obligarán a desentrañar el oscuro secreto que les ha dejado peligrosamente conectados con el mundo espiritual.
























La pelicula NO tiene ninguna marca... solo colocamos el nombre de esta web en las capturas






Código:
General
Format                                   : Matroska
Format version                           : Version 2
File size                                : 3.72 GiB
Duration                                 : 1h 45mn
Overall bit rate                         : 5 036 Kbps
Movie name                               : www.club-hd.com
Encoded date                             : UTC 2013-12-07 01:02:57
Writing application                      : mkvmerge v5.7.0 ('The Whirlwind') built on Jul  8 2012 20:08:51
Writing library                          : libebml v1.2.3 + libmatroska v1.3.0

Video
ID                                       : 1
Format                                   : AVC
Format/Info                              : Advanced Video Codec
Format profile                           : High@L4.1
Format settings, CABAC                   : Yes
Format settings, ReFrames                : 5 frames
Codec ID                                 : V_MPEG4/ISO/AVC
Duration                                 : 1h 45mn
Bit rate                                 : 4 397 Kbps
Width                                    : 1 280 pixels
Height                                   : 536 pixels
Display aspect ratio                     : 2.40:1
Frame rate mode                          : Constant
Frame rate                               : 23.976 fps
Color space                              : YUV
Chroma subsampling                       : 4:2:0
Bit depth                                : 8 bits
Scan type                                : Progressive
Bits/(Pixel*Frame)                       : 0.267
Stream size                              : 3.18 GiB (85%)
Title                                    : www.club-hd.com
Writing library                          : x264 core 140 r2377 1ca7bb9
Language                                 : English
Default                                  : Yes
Forced                                   : No

Audio
ID                                       : 2
Format                                   : AC-3
Format/Info                              : Audio Coding 3
Mode extension                           : CM (complete main)
Format settings, Endianness              : Big
Codec ID                                 : A_AC3
Duration                                 : 1h 45mn
Bit rate mode                            : Constant
Bit rate                                 : 640 Kbps
Channel(s)                               : 6 channels
Channel positions                        : Front: L C R, Side: L R, LFE
Sampling rate                            : 48.0 KHz
Bit depth                                : 16 bits
Compression mode                         : Lossy
Stream size                              : 485 MiB (13%)
Title                                    : www.club-hd.com
Language                                 : English
Default                                  : Yes
Forced                                   : No

Text
ID                                       : 3
Format                                   : UTF-8
Codec ID                                 : S_TEXT/UTF8
Codec ID/Info                            : UTF-8 Plain Text
Title                                    : www.club-hd.com
Language                                 : Spanish
Default                                  : Yes
Forced                                   : No

Menu
00:00:00.000                             : en:00:00:00.000
00:12:45.890                             : en:00:12:45.890
00:22:22.967                             : en:00:22:22.967
00:26:03.228                             : en:00:26:03.228
00:30:09.224                             : en:00:30:09.224
00:37:31.583                             : en:00:37:31.583
00:42:46.314                             : en:00:42:46.314
00:48:49.468                             : en:00:48:49.468
00:56:11.702                             : en:00:56:11.702
00:59:41.661                             : en:00:59:41.661
01:05:57.579                             : en:01:05:57.579
01:14:33.344                             : en:01:14:33.344
01:21:37.351                             : en:01:21:37.351
01:27:31.413                             : en:01:27:31.413
01:33:33.858                             : en:01:33:33.858
01:38:59.433                             : en:01:38:59.433








Enlaces de Mega y Google Drive solo disponibles para Miembros VIP

Compra tu Membresía VIP y apoya a Club-HD!

ATENCIÓN! Tenemos TODO el material de Club-HD disponible por Mega y Google Drive, enlaces 100% activos y online hasta la fecha

Llévate tus cuentas Mega PRO III gratis con tu membresía VIP!
Todos los posts vivos con links de Mega y Google Drive.
Todo el material de Club-HD desbloqueado y sin publicidad.

Click Aquí para más información.


Para ver este contenido oculto, debes dar click en una de las siguientes reacciones : Like Like, Love Love, Haha Haha, Wow Wow, Sad Sad, Angry Angry



 
Última edición por un moderador:

Doctor Jason

New member
Súper Moderador
Registro
1 Sep 2012
Mensajes
2.398
Ubicación
Buenos Aires
Muchisimas Gracias Revolver!!!


Segundas Partes: La Eterna Polémica: Las Secuelas son buenas o son malas? Pnsand0.......

5 Pelis que SÍ: Tb_up3

1) Evil Dead 2 (1987)
2) Aliens (1986)
3) Poltergeist 2: The Other Side (1986)
4) Hostel: Part 2 (2007)
5) Scream 2 (1997)

5 Pelis que NO: :plgrsa:

1) The Blair Witch Project: Book of Shadows (2000)
2) Psycho 2 (1983)
3) Scream 3 (2000)
4) The Birds 2: Land's End (1994)
5) Return to Salem's Lot (1987)


Saludos.bye
 

Usuarios Que Están Viendo Este Tema (Total: 1, Miembros: 0, Invitados: 1)

Quién Leyó Este Tema (Total Miembros: 1)

Arriba