Insomnia (2002) 720p Dual Latino-Inglés [Subt. Esp] (Intriga. Drama)

Maestro Revolver

Well-known member
Miembro del Staff
Administrador
Registro
9 Ago 2012
Mensajes
3.569
Reacciones
59.364
Puntos
113

Reputation:









TÍTULO ORIGINAL: Insomnia
AÑO: 2002
DURACIÓN: 118 min.
PAÍS: USA
DIRECTOR: Christopher Nolan
GUIÓN: Hillary Seitz (Remake: Erik Skjoldbjaerg)
REPARTO: Al Pacino, Robin Williams, Hilary Swank, Maura Tierney, Martin Donovan, Nicky Katt, Paul Dooley, Jonathan Jackson
PRODUCTORA: Warner Bros. Pictures / Alcon Entertainment
GÉNERO: Intriga. Drama. Thriller | Remake. Policíaco
: http://www.imdb.com/title/tt0278504/






Will Dormer (Al Pacino), un veterano detective de Los Ángeles, viaja a un pequeño pueblo de Alaska con su compañero Hap (Martin Donovan) para investigar el asesinato de una chica de 17 años. En Los Ángeles queda pendiente un oscuro asunto que les incumbe a los dos. Una vez en Alaska, entran en contacto con el principal sospechoso, Walter Finch, un novelista ermitaño (Robin Williams).
























La pelicula NO tiene ninguna marca... solo colocamos el nombre de esta web en las capturas






Código:
General
Format                                   : Matroska
Format version                           : Version 2
File size                                : 4.13 GiB
Duration                                 : 1h 58mn
Overall bit rate                         : 4 989 Kbps
Movie name                               : www.club-hd.com
Encoded date                             : UTC 2013-01-03 04:24:56
Writing application                      : mkvmerge v5.7.0 ('The Whirlwind') built on Jul  8 2012 20:08:51
Writing library                          : libebml v1.2.3 + libmatroska v1.3.0

Video
ID                                       : 1
Format                                   : AVC
Format/Info                              : Advanced Video Codec
Format profile                           : High 10@L5.1
Format settings, CABAC                   : Yes
Format settings, ReFrames                : 16 frames
Codec ID                                 : V_MPEG4/ISO/AVC
Duration                                 : 1h 58mn
Bit rate                                 : 4 350 Kbps
Width                                    : 1 280 pixels
Height                                   : 540 pixels
Display aspect ratio                     : 2.40:1
Frame rate mode                          : Constant
Frame rate                               : 23.976 fps
Color space                              : YUV
Chroma subsampling                       : 4:2:0
Bit depth                                : 10 bits
Scan type                                : Progressive
Bits/(Pixel*Frame)                       : 0.262
Stream size                              : 3.52 GiB (85%)
Title                                    : www.club-hd.com
Writing library                          : x264 core 124 r2197 69a0443
Language                                 : English
Default                                  : Yes
Forced                                   : No

Audio #1
ID                                       : 2
Format                                   : AC-3
Format/Info                              : Audio Coding 3
Mode extension                           : CM (complete main)
Format settings, Endianness              : Big
Codec ID                                 : A_AC3
Duration                                 : 1h 58mn
Bit rate mode                            : Constant
Bit rate                                 : 192 Kbps
Channel(s)                               : 2 channels
Channel positions                        : Front: L R
Sampling rate                            : 48.0 KHz
Bit depth                                : 16 bits
Compression mode                         : Lossy
Delay relative to video                  : 18s 800ms
Stream size                              : 163 MiB (4%)
Title                                    : www.club-hd.com  >>  Latino
Language                                 : Spanish
Default                                  : Yes
Forced                                   : No

Audio #2
ID                                       : 3
Format                                   : AC-3
Format/Info                              : Audio Coding 3
Mode extension                           : CM (complete main)
Format settings, Endianness              : Big
Codec ID                                 : A_AC3
Duration                                 : 1h 58mn
Bit rate mode                            : Constant
Bit rate                                 : 448 Kbps
Channel(s)                               : 6 channels
Channel positions                        : Front: L C R, Side: L R, LFE
Sampling rate                            : 48.0 KHz
Bit depth                                : 16 bits
Compression mode                         : Lossy
Stream size                              : 380 MiB (9%)
Title                                    : www.club-hd.com  >>  Inglés
Language                                 : English
Default                                  : No
Forced                                   : No

Text
ID                                       : 4
Format                                   : UTF-8
Codec ID                                 : S_TEXT/UTF8
Codec ID/Info                            : UTF-8 Plain Text
Language                                 : Spanish
Default                                  : No
Forced                                   : No

Menu
00:00:00.000                             : en:Chapter 01
00:06:24.050                             : en:Chapter 02
00:10:17.783                             : en:Chapter 03
00:12:48.267                             : en:Chapter 04
00:16:50.509                             : en:Chapter 05
00:21:50.392                             : en:Chapter 06
00:30:14.020                             : en:Chapter 07
00:37:51.519                             : en:Chapter 08
00:42:50.859                             : en:Chapter 09
00:47:48.949                             : en:Chapter 10
00:51:25.373                             : en:Chapter 11
00:52:41.908                             : en:Chapter 12
00:56:57.122                             : en:Chapter 13
01:06:47.670                             : en:Chapter 14
01:15:03.916                             : en:Chapter 15
01:19:50.118                             : en:Chapter 16
01:21:03.066                             : en:Chapter 17
01:25:48.309                             : en:Chapter 18
01:29:27.528                             : en:Chapter 19
01:34:15.149                             : en:Chapter 20
01:37:01.398                             : en:Chapter 21
01:43:19.526                             : en:Chapter 22
01:51:41.611                             : en:Chapter 23
01:54:09.676                             : en:Chapter 24










Enlaces de Mega y Fireload solo disponibles para Miembros VIP

Compra tu Membresía VIP y apoya a Club-HD!

ATENCIÓN! Tenemos TODO el material de Club-HD disponible por Mega y Fireload, enlaces 100% activos y online hasta la fecha

Llévate tus cuentas Mega PRO II gratis con tu membresía VIP!
Todos los posts vivos con links de Mega y Fireload.
Todo el material de Club-HD desbloqueado y sin publicidad.

Click Aquí para más información.




Enlaces de Mega y Fireload solo disponibles para Miembros VIP

Compra tu Membresía VIP y apoya a Club-HD!

ATENCIÓN! Tenemos TODO el material de Club-HD disponible por Mega y Fireload, enlaces 100% activos y online hasta la fecha

Llévate tus cuentas Mega PRO II gratis con tu membresía VIP!
Todos los posts vivos con links de Mega y Fireload.
Todo el material de Club-HD desbloqueado y sin publicidad.

Click Aquí para más información.



Para ver este contenido oculto, debes dar click en una de las siguientes reacciones : Like Like, Love Love, Haha Haha, Wow Wow, Sad Sad, Angry Angry
 
Última edición:

orcko5001

Active member
Registro
27 Ago 2012
Mensajes
288
Reacciones
35
Puntos
28
Edad
37

Reputation:

veamos q tal esta muchas gracias por las movies saludos
 

jave1992

New member
Registro
29 Ago 2012
Mensajes
278
Reacciones
3
Puntos
0
Edad
29
Ubicación
Lima

Reputation:

si es del MAESTRO Nolan , claro que lo descargo
 

Usuarios Que Están Viendo Este Tema (Total: 1, Miembros: 0, Invitados: 1)

Arriba