Ip Man 2: Legend of the Grandmaster (2010) m-720p BDRip Audio Chino [Subt. Esp] (Acción)

Maestro Revolver

Well-known member
Miembro del Staff
Administrador
Registro
9 Ago 2012
Mensajes
3.567








TÍTULO ORIGINAL: Yip Man 2: Chung si chuen kei (Ip Man 2)
AÑO: 2010
DURACIÓN: 108 min.
PAÍS: Hong Kong
DIRECTOR: Wilson Yip
GUIÓN: Edmond Wong
REPARTO: Donnie Yen, Lynn Hung, Simon Yam, Sammo Hung Kam-Bo, Xiaoming Huang, Siu-Wong Fan, Kent Cheng, Darren Shahlavi
PRODUCTORA: Mandarin Films Distribution Co.
GÉNERO: Acción | Biográfico. Artes marciales. Histórico. Secuela
: http://www.imdb.com/title/tt1386932/






En esta secuela, Ip Man (Donnie Yen) ha dejado atrás Foshun y llega a Hong-Kong, donde abre una escuela de Wing Chun. Allí pronto entra en conflicto con un maestro local de Hung Fist llamado Hung Jan-nam (Sammo Hung). Las tensiones entre los dos maestros de Kung fu seguirán incrementándose hasta que se ven forzados a batirse a duelo.
























La pelicula NO tiene ninguna marca... solo colocamos el nombre de esta web en las capturas






Código:
General
Format                                   : Matroska
Format version                           : Version 2
File size                                : 2.75 GiB
Duration                                 : 1h 48mn
Overall bit rate                         : 3 641 Kbps
Movie name                               : www.club-hd.com
Encoded date                             : UTC 2013-06-11 03:10:54
Writing application                      : mkvmerge v5.7.0 ('The Whirlwind') built on Jul  8 2012 20:08:51
Writing library                          : libebml v1.2.3 + libmatroska v1.3.0

Video
ID                                       : 1
Format                                   : AVC
Format/Info                              : Advanced Video Codec
Format profile                           : High@L4.1
Format settings, CABAC                   : Yes
Format settings, ReFrames                : 6 frames
Codec ID                                 : V_MPEG4/ISO/AVC
Duration                                 : 1h 48mn
Bit rate                                 : 3 000 Kbps
Width                                    : 1 280 pixels
Height                                   : 544 pixels
Display aspect ratio                     : 2.35:1
Frame rate mode                          : Constant
Frame rate                               : 24.000 fps
Color space                              : YUV
Chroma subsampling                       : 4:2:0
Bit depth                                : 8 bits
Scan type                                : Progressive
Bits/(Pixel*Frame)                       : 0.180
Stream size                              : 2.21 GiB (80%)
Title                                    : www.club-hd.com
Writing library                          : x264 core 129 r2230 1cffe9f
Language                                 : Chinese
Default                                  : Yes
Forced                                   : No

Audio
ID                                       : 2
Format                                   : AC-3
Format/Info                              : Audio Coding 3
Mode extension                           : CM (complete main)
Format settings, Endianness              : Big
Codec ID                                 : A_AC3
Duration                                 : 1h 48mn
Bit rate mode                            : Constant
Bit rate                                 : 640 Kbps
Channel(s)                               : 6 channels
Channel positions                        : Front: L C R, Side: L R, LFE
Sampling rate                            : 48.0 KHz
Bit depth                                : 16 bits
Compression mode                         : Lossy
Stream size                              : 495 MiB (18%)
Title                                    : www.club-hd.com
Language                                 : Chinese
Default                                  : Yes
Forced                                   : No

Text
ID                                       : 3
Format                                   : UTF-8
Codec ID                                 : S_TEXT/UTF8
Codec ID/Info                            : UTF-8 Plain Text
Title                                    : www.club-hd.com
Language                                 : Spanish
Default                                  : Yes
Forced                                   : No








Enlaces de Mega y Google Drive solo disponibles para Miembros VIP

Compra tu Membresía VIP y apoya a Club-HD!

ATENCIÓN! Tenemos TODO el material de Club-HD disponible por Mega y Google Drive, enlaces 100% activos y online hasta la fecha

Llévate tus cuentas Mega PRO III gratis con tu membresía VIP!
Todos los posts vivos con links de Mega y Google Drive.
Todo el material de Club-HD desbloqueado y sin publicidad.

Click Aquí para más información.



Para ver este contenido oculto, debes dar click en una de las siguientes reacciones : Like Like, Love Love, Haha Haha, Wow Wow, Sad Sad, Angry Angry

 
Última edición por un moderador:

metro15

Member
Registro
27 Ago 2012
Mensajes
485
Ubicación
en la calle
exelente. la primera entrega me dejo interesado en el mundo de las artes marciales desde el punto de vista de la guerra.
Desc_g_ y despues la precuela boxing2
 

Usuarios Que Están Viendo Este Tema (Total: 1, Miembros: 0, Invitados: 1)

Quién Leyó Este Tema (Total Miembros: 2)

Arriba