• Este aviso va dirigido a todos los nuevos miembros recien llegados a Club-HD. Les recordamos que la direccion URL de este sitio web es , asi que deben acceder únicamente por esta URL. Sean todos bienvenidos al Club!

Ip Man 4: The Finale (2019) 1080p BDRip Dual Latino-Chino [Subt. Esp] (Acción. Drama)

Dante Inferno

🔥Dante Inferno🔥
Miembro del Staff
Moderador
Uploader
Registrado
24 May 2016
Mensajes
547
Puntos de reacción
10,351
Puntos
93
Ubicación
Argentina
Sitio web
club-hd.com



Otros titulos: Yip Man 4 | Ip Man 4: Final | Chung Wah Sin San

SINOPSIS

El maestro de Kung Fu viaja a los Estados Unidos, donde uno de sus estudiantes ha molestado a la comunidad de artes marciales al abrir una escuela de Wing Chun. (FILMAFFINITY)

MÁS INFORMACIÓN




TRAILER



CAPTURAS








MEDIAINFO

Código:
General
Complete name                            : Ip Man 4 The Finale (2019) 1080p BDRip Dual Latino-Chino [Subt. Esp].mkv
Format                                   : Matroska
Format version                           : Version 4
File size                                : 10.9 GiB
Duration                                 : 1 h 45 min
Overall bit rate                         : 14.9 Mb/s
Movie name                               : Ip Man 4: The Finale (2019) 1080p BDRip Dual Latino-Chino [Subt. Esp] [www.club-hd.com]
Encoded date                             : UTC 2020-05-12 21:12:52
Writing application                      : mkvmerge v27.0.0 ('Metropolis') 64-bit
Writing library                          : libebml v1.3.6 + libmatroska v1.4.9

Video
ID                                       : 1
Format                                   : AVC
Format/Info                              : Advanced Video Codec
Format profile                           : High@L4.1
Format settings                          : CABAC / 5 Ref Frames
Format settings, CABAC                   : Yes
Format settings, Reference frames        : 5 frames
Codec ID                                 : V_MPEG4/ISO/AVC
Duration                                 : 1 h 45 min
Bit rate                                 : 13.0 Mb/s
Width                                    : 1 920 pixels
Height                                   : 804 pixels
Display aspect ratio                     : 2.40:1
Frame rate mode                          : Constant
Frame rate                               : 24.000 FPS
Color space                              : YUV
Chroma subsampling                       : 4:2:0
Bit depth                                : 8 bits
Scan type                                : Progressive
Bits/(Pixel*Frame)                       : 0.351
Stream size                              : 9.52 GiB (87%)
Title                                    : Ip Man 4: The Finale (2019) 1080p BDRip Dual Latino-Chino [Subt. Esp]
Writing library                          : x264 core 148 r2665kMod a01e339
Language                                 : Chinese
Default                                  : Yes
Forced                                   : No

Audio #1
ID                                       : 2
Format                                   : E-AC-3
Format/Info                              : Enhanced AC-3
Commercial name                          : Dolby Digital Plus
Codec ID                                 : A_EAC3
Duration                                 : 1 h 45 min
Bit rate mode                            : Constant
Bit rate                                 : 384 kb/s
Channel(s)                               : 6 channels
Channel layout                           : L R C LFE Ls Rs
Sampling rate                            : 48.0 kHz
Frame rate                               : 31.250 FPS (1536 SPF)
Compression mode                         : Lossy
Delay relative to video                  : 24 ms
Stream size                              : 289 MiB (3%)
Title                                    : Español Latino (TV Box A95X Pro)
Language                                 : Spanish
Service kind                             : Complete Main
Default                                  : Yes
Forced                                   : No

Audio #2
ID                                       : 3
Format                                   : DTS
Format/Info                              : Digital Theater Systems
Codec ID                                 : A_DTS
Duration                                 : 1 h 45 min
Bit rate mode                            : Constant
Bit rate                                 : 1 509 kb/s
Channel(s)                               : 6 channels
Channel layout                           : C L R Ls Rs LFE
Sampling rate                            : 48.0 kHz
Frame rate                               : 93.750 FPS (512 SPF)
Bit depth                                : 24 bits
Compression mode                         : Lossy
Stream size                              : 1.11 GiB (10%)
Title                                    : Chino
Language                                 : Chinese
Default                                  : No
Forced                                   : No

Text
ID                                       : 4
Format                                   : UTF-8
Codec ID                                 : S_TEXT/UTF8
Codec ID/Info                            : UTF-8 Plain Text
Duration                                 : 1 h 42 min
Bit rate                                 : 49 b/s
Count of elements                        : 1045
Stream size                              : 36.8 KiB (0%)
Title                                    : Subtítulos Español
Language                                 : Spanish
Default                                  : No
Forced                                   : No

Menu
00:00:00.000                             : :绗?01 绔?
00:11:01.292                             : :绗?02 绔?
00:21:05.500                             : :绗?03 绔?
00:31:38.917                             : :绗?04 绔?
00:40:56.625                             : :绗?05 绔?
00:50:02.542                             : :绗?06 绔?
00:58:48.208                             : :绗?07 绔?
01:10:40.375                             : :绗?08 绔?
01:18:20.167                             : :绗?09 绔?
01:29:57.958                             : :绗?10 绔?
01:41:41.458                             : :绗?11 绔?

Un agradecimiento muy especial a nuestro amigo uziel por brindarnos este audio Latino de excelente calidad.

Note: Extraído De TV Box A95X Pro




CONTRASEÑA



DESCARGAR

Todos los links son Intercambiables




Enlaces de Mega y Google Drive solo disponibles para Miembros VIP

Compra tu Membresía VIP y apoya a Club-HD!

ATENCIÓN! Tenemos TODO el material de Club-HD disponible por Mega y Google Drive, enlaces 100% activos y online hasta la fecha

Llévate tus cuentas Mega PRO II gratis con tu membresía VIP!
Todos los posts vivos con links de Mega y Google Drive.
Todo el material de Club-HD desbloqueado y sin publicidad.

Click Aquí para más información.



Enlaces de Mega y Google Drive solo disponibles para Miembros VIP

Compra tu Membresía VIP y apoya a Club-HD!

ATENCIÓN! Tenemos TODO el material de Club-HD disponible por Mega y Google Drive, enlaces 100% activos y online hasta la fecha

Llévate tus cuentas Mega PRO II gratis con tu membresía VIP!
Todos los posts vivos con links de Mega y Google Drive.
Todo el material de Club-HD desbloqueado y sin publicidad.

Click Aquí para más información.



Para ver este contenido oculto, debes dar click en una de las siguientes reacciones: Like Like, Love Love, Haha Haha, Wow Wow, Sad Sad, Angry Angry



Para ver este contenido oculto, debes dar click en una de las siguientes reacciones: Like Like, Love Love, Haha Haha, Wow Wow, Sad Sad, Angry Angry



Para ver este contenido oculto, debes dar click en una de las siguientes reacciones: Like Like, Love Love, Haha Haha, Wow Wow, Sad Sad, Angry Angry
 
Última edición por un moderador:

opv_2011

Active member
Registrado
3 Feb 2016
Mensajes
722
Puntos de reacción
41
Puntos
28
Edad
46
Gracias por la película!
 
Última edición por un moderador:

Usuarios Que Están Viendo Este Tema (Total: 2, Miembros: 1, Invitados: 1)

Quien Leyó Este Tema (Total Miembros: 275)

Arriba