Iron Man 3 (2013) m-720p BDRip Dual Latino-Inglés [Subt. Esp] + EXTRAS (Fantástico. Ciencia ficción. Acción)

Maestro Revolver

Well-known member
Miembro del Staff
Administrador
Registro
9 Ago 2012
Mensajes
3.567








TÍTULO ORIGINAL: Iron Man 3 (Ironman 3)
AÑO: 2013
DURACIÓN: 118 min.
PAÍS: USA
DIRECTOR: Shane Black
GUIÓN: Shane Black, Drew Pearce (Personajes: Stan Lee)
REPARTO: Robert Downey Jr., Ben Kingsley, Gwyneth Paltrow, Don Cheadle, Guy Pearce, Rebecca Hall, James Badge Dale, Stephanie Szostak, Ty Simpkins, Wang Xueqi, Jon Favreau, William Sadler, Miguel Ferrer, Bingbing Fan, Yvonne Zima, Dale Dickey, Ashley Hamilton, Stan Lee
PRODUCTORA: Marvel Studios / Walt Disney Pictures
GÉNERO: Fantástico. Ciencia ficción. Acción | Superhéroes. Cómic. Marvel Comics. Secuela. 3-D. Robots. Terrorismo
: http://www.imdb.com/title/tt1300854/






El descarado y brillante empresario Tony Stark/Iron Man se enfrentará a un enemigo cuyo poder no conoce límites. Cuando Stark comprende que su enemigo ha destruido su universo personal, se embarca en una angustiosa búsqueda para encontrar a los responsables. Este viaje pondrá a prueba su entereza una y otra vez. Acorralado, Stark tendrá que sobrevivir por sus propios medios, confiando en su ingenio y su instinto para proteger a las personas que quiere.
































EXTRAS











La pelicula NO tiene ninguna marca... solo colocamos el nombre de esta web en las capturas






Código:
[SIZE=5][B]PELÍCULA[/B][/SIZE]

General
Format                                   : Matroska
Format version                           : Version 2
File size                                : 3.69 GiB
Duration                                 : 2h 10mn
Overall bit rate                         : 4 043 Kbps
Movie name                               : www.club-hd.com
Encoded date                             : UTC 2013-08-25 04:03:35
Writing application                      : mkvmerge v5.7.0 ('The Whirlwind') built on Jul  8 2012 20:08:51
Writing library                          : libebml v1.2.3 + libmatroska v1.3.0

Video
ID                                       : 1
Format                                   : AVC
Format/Info                              : Advanced Video Codec
Format profile                           : High@L4.1
Format settings, CABAC                   : Yes
Format settings, ReFrames                : 9 frames
Codec ID                                 : V_MPEG4/ISO/AVC
Duration                                 : 2h 10mn
Bit rate                                 : 2 761 Kbps
Width                                    : 1 280 pixels
Height                                   : 534 pixels
Display aspect ratio                     : 2.40:1
Frame rate mode                          : Constant
Frame rate                               : 23.976 fps
Color space                              : YUV
Chroma subsampling                       : 4:2:0
Bit depth                                : 8 bits
Scan type                                : Progressive
Bits/(Pixel*Frame)                       : 0.168
Stream size                              : 2.45 GiB (66%)
Title                                    : www.club-hd.com
Writing library                          : x264 core 135 r2345 f0c1c53
Language                                 : English
Default                                  : Yes
Forced                                   : No

Audio #1
ID                                       : 2
Format                                   : AC-3
Format/Info                              : Audio Coding 3
Mode extension                           : CM (complete main)
Format settings, Endianness              : Big
Codec ID                                 : A_AC3
Duration                                 : 2h 10mn
Bit rate mode                            : Constant
Bit rate                                 : 640 Kbps
Channel(s)                               : 6 channels
Channel positions                        : Front: L C R, Side: L R, LFE
Sampling rate                            : 48.0 KHz
Bit depth                                : 16 bits
Compression mode                         : Lossy
Stream size                              : 598 MiB (16%)
Title                                    : www.club-hd.com > Latino
Language                                 : Spanish
Default                                  : Yes
Forced                                   : No

Audio #2
ID                                       : 3
Format                                   : AC-3
Format/Info                              : Audio Coding 3
Mode extension                           : CM (complete main)
Format settings, Endianness              : Big
Codec ID                                 : A_AC3
Duration                                 : 2h 10mn
Bit rate mode                            : Constant
Bit rate                                 : 640 Kbps
Channel(s)                               : 6 channels
Channel positions                        : Front: L C R, Side: L R, LFE
Sampling rate                            : 48.0 KHz
Bit depth                                : 16 bits
Compression mode                         : Lossy
Stream size                              : 598 MiB (16%)
Title                                    : www.club-hd.com > Inglés
Language                                 : English
Default                                  : No
Forced                                   : No

Text
ID                                       : 4
Format                                   : UTF-8
Codec ID                                 : S_TEXT/UTF8
Codec ID/Info                            : UTF-8 Plain Text
Language                                 : Spanish
Default                                  : No
Forced                                   : No

Menu
00:00:00.000                             : en:Chapter 1
00:04:52.751                             : en:Chapter 2
00:07:55.433                             : en:Chapter 3
00:12:12.440                             : en:Chapter 4
00:19:04.101                             : en:Chapter 5
00:23:47.885                             : en:Chapter 6
00:29:47.703                             : en:Chapter 7
00:39:46.384                             : en:Chapter 8
00:45:56.045                             : en:Chapter 9
00:59:19.639                             : en:Chapter 10
01:01:56.922                             : en:Chapter 11
01:09:24.452                             : en:Chapter 12
01:18:41.508                             : en:Chapter 13
01:23:52.945                             : en:Chapter 14
01:37:55.995                             : en:Chapter 15
01:56:18.305                             : en:Chapter 16
01:59:38.755                             : en:Chapter 17





[SIZE=5][B]EXTRAS[/B][/SIZE]

Runtime ............: 0:56:38
Size ...............: 2.53 GB
Video ..............: 1280x720 / 1280x534
Bitrate ............: 5200 kbps (x264 High@L4.1 CBR)
Audio 1.............: English DTS 5.1 Ch 1510 kbps / English DD5.1 Ch 640 kbps / English DD2.0 Ch 320 kbps
Chapters............: Yes
Subs ...............: French, Dutch, Greek, Arabic, Russian, Ukranian, Bulgarian
 
[SIZE=4][B]Videos[/B][/SIZE]
Marvel One Shot : Agent Carter
Extended And Deleted Scenes
Iron Man 3 Unmasked
Deconstructing The Scene : Attack On Air Force One
Gag Reel




Subtítulos para Marvel One Shot : Agent Carter (Extras)

http://www.subdivx.com/X6XMzQ0OTIzX-marvel-one-shot-agent-carter.html








Enlaces de Mega y Google Drive solo disponibles para Miembros VIP

Compra tu Membresía VIP y apoya a Club-HD!

ATENCIÓN! Tenemos TODO el material de Club-HD disponible por Mega y Google Drive, enlaces 100% activos y online hasta la fecha

Llévate tus cuentas Mega PRO III gratis con tu membresía VIP!
Todos los posts vivos con links de Mega y Google Drive.
Todo el material de Club-HD desbloqueado y sin publicidad.

Click Aquí para más información.


Para ver este contenido oculto, debes dar click en una de las siguientes reacciones : Like Like, Love Love, Haha Haha, Wow Wow, Sad Sad, Angry Angry



 
Última edición por un moderador:

Joker

Well-known member
Miembro del Staff
Súper Moderador
Registro
27 Ago 2012
Mensajes
1.349
Ubicación
Arkham Asylum
Desc_g_

Excelente!!! :aplausos:

Me llevo los extras en 720p y la pelicula en 1080p :D

Eres super Revolver Ne0, alguna vez has pensado en formar parte de los Vengadores o la Liga de la Justicia? S_T1

Gracias!!!

Saludos :D
 

Usuarios Que Están Viendo Este Tema (Total: 1, Miembros: 0, Invitados: 1)

Quién Leyó Este Tema (Total Miembros: 3)

Arriba