Jack the Giant Slayer (2013) m-720p Dual Latino-Inglés [Subt. Esp] (Fantástico. Aventura)

Maestro Revolver

Well-known member
Miembro del Staff
Administrador
Registro
9 Ago 2012
Mensajes
3.567








TÍTULO ORIGINAL: Jack the Giant Slayer (Jack the Giant Killer)
AÑO: 2013
DURACIÓN: 114 min.
PAÍS: USA
DIRECTOR: Bryan Singer
GUIÓN: Christopher McQuarrie, Mark Bomback, Darren Lemke, Dan Studney (Fábula: Hans Christian Andersen)
REPARTO: Nicholas Hoult, Ewan McGregor, Bill Nighy, Ian McShane, Stanley Tucci, Eddie Marsan, Warwick Davis, Eleanor Tomlinson, John Kassir
PRODUCTORA: Legendary Pictures / New Line Cinema / Original Film
GÉNERO: Fantástico. Aventuras. Drama | Cuentos
: http://www.imdb.com/title/tt1351685/






La paz entre los seres humanos y los gigantes llega a su fin cuando éstos secuestran a una princesa. Un grupo de hombres valientes encabezados por un joven granjero intentarán rescatarla. Adaptación para adultos del cuento infantil Jack y las Habichuelas Mágicas.
























La pelicula NO tiene ninguna marca... solo colocamos el nombre de esta web en las capturas






Código:
General
Format                                   : Matroska
Format version                           : Version 2
File size                                : 3.01 GiB
Duration                                 : 1h 54mn
Overall bit rate                         : 3 774 Kbps
Movie name                               : www.club-hd.com
Encoded date                             : UTC 2013-06-02 17:26:37
Writing application                      : mkvmerge v5.7.0 ('The Whirlwind') built on Jul  8 2012 20:08:51
Writing library                          : libebml v1.2.3 + libmatroska v1.3.0

Video
ID                                       : 1
Format                                   : AVC
Format/Info                              : Advanced Video Codec
Format profile                           : High@L4.1
Format settings, CABAC                   : Yes
Format settings, ReFrames                : 9 frames
Codec ID                                 : V_MPEG4/ISO/AVC
Duration                                 : 1h 54mn
Bit rate                                 : 2 685 Kbps
Width                                    : 1 280 pixels
Height                                   : 534 pixels
Display aspect ratio                     : 2.40:1
Frame rate mode                          : Constant
Frame rate                               : 23.976 fps
Color space                              : YUV
Chroma subsampling                       : 4:2:0
Bit depth                                : 8 bits
Scan type                                : Progressive
Bits/(Pixel*Frame)                       : 0.164
Stream size                              : 2.09 GiB (69%)
Title                                    : www.club-hd.com
Writing library                          : x264 core 130 r2273 b3065e6
Language                                 : English
Default                                  : Yes
Forced                                   : No

Audio #1
ID                                       : 2
Format                                   : AC-3
Format/Info                              : Audio Coding 3
Mode extension                           : CM (complete main)
Format settings, Endianness              : Big
Codec ID                                 : A_AC3
Duration                                 : 1h 54mn
Bit rate mode                            : Constant
Bit rate                                 : 640 Kbps
Channel(s)                               : 6 channels
Channel positions                        : Front: L C R, Side: L R, LFE
Sampling rate                            : 48.0 KHz
Bit depth                                : 16 bits
Compression mode                         : Lossy
Stream size                              : 524 MiB (17%)
Title                                    : www.club-hd.com  >>  Audio Latino AC3 5.1
Language                                 : Spanish
Default                                  : Yes
Forced                                   : No

Audio #2
ID                                       : 3
Format                                   : AC-3
Format/Info                              : Audio Coding 3
Mode extension                           : CM (complete main)
Format settings, Endianness              : Big
Codec ID                                 : A_AC3
Duration                                 : 1h 54mn
Bit rate mode                            : Constant
Bit rate                                 : 448 Kbps
Channel(s)                               : 6 channels
Channel positions                        : Front: L C R, Side: L R, LFE
Sampling rate                            : 48.0 KHz
Bit depth                                : 16 bits
Compression mode                         : Lossy
Stream size                              : 366 MiB (12%)
Title                                    : www.club-hd.com  >>  Audio Inglés AC3 5.1
Language                                 : English
Default                                  : No
Forced                                   : No

Text
ID                                       : 4
Format                                   : UTF-8
Codec ID                                 : S_TEXT/UTF8
Codec ID/Info                            : UTF-8 Plain Text
Language                                 : Spanish
Default                                  : No
Forced                                   : No

Menu
00:00:00.000                             : en:Chapter 1
00:10:21.371                             : en:Chapter 2
00:19:23.746                             : en:Chapter 3
00:29:52.207                             : en:Chapter 4
00:38:55.375                             : en:Chapter 5
00:49:24.879                             : en:Chapter 6
00:59:35.489                             : en:Chapter 7
01:09:26.287                             : en:Chapter 8
01:20:39.168                             : en:Chapter 9
01:29:51.303                             : en:Chapter 10
01:39:02.812                             : en:Chapter 11
01:45:57.726                             : en:Chapter 12








Enlaces de Mega y Google Drive solo disponibles para Miembros VIP

Compra tu Membresía VIP y apoya a Club-HD!

ATENCIÓN! Tenemos TODO el material de Club-HD disponible por Mega y Google Drive, enlaces 100% activos y online hasta la fecha

Llévate tus cuentas Mega PRO III gratis con tu membresía VIP!
Todos los posts vivos con links de Mega y Google Drive.
Todo el material de Club-HD desbloqueado y sin publicidad.

Click Aquí para más información.


Para ver este contenido oculto, debes dar click en una de las siguientes reacciones : Like Like, Love Love, Haha Haha, Wow Wow, Sad Sad, Angry Angry



 
Última edición por un moderador:

Usuarios Que Están Viendo Este Tema (Total: 1, Miembros: 0, Invitados: 1)

Quién Leyó Este Tema (Total Miembros: 1)

Arriba